Суперсемейка / The Incredibles (2004) UHD BDRemux 2160p от ExKinoRay | HDR | D, P, A

 
 Статистика раздачи 
Размер: 53.22 ГБ   |  Зарегистрирован: 08 июн 2018, 15:21   |   .torrent скачан: 0 раз
Сидеров: 1  [ 0 байт/сек ]     Личеров: 0  [ 0 байт/сек ]  
  

Суперсемейка / The Incredibles (2004) UHD BDRemux 2160p от ExKinoRay | HDR | D, P, A

Сообщение graf_t » 08 июн 2018, 15:21

Суперсемейка
The Incredibles
«Sock'er Mom»

Информация о фильме
Название: Суперсемейка
Оригинальное название: The Incredibles
Год выпуска: 2004
Жанр: Мультфильм, боевик, приключения, семейный, фэнтези
Выпущено: США, Walt Disney Pictures, Pixar Animation Studios
Режиссер: Брэд Берд
В ролях: Крэйг Т. Нельсон, Холли Хантер, Сэмюэл Л. Джексон, Джейсон Ли, Доминик Луи, Тедди Ньютон, Джин Синсир, Илай Фучиле, Маив Эндрюс, Уоллес Шон

Продолжительность: 01:55:25

Описание:

История семьи супергероев, члены которой уже отошли от больших дел и предпочитают жить непримечательной жизнью обычных землян. В прошлом все они обладали сверхъестественными способностями и относительно легко справлялись с мировым злом. Но в один прекрасный день папаше и его домочадцам приходится вновь облачиться в прорезиненные костюмы супергероев (а для этого нужно срочно сбросить лишние килограммы!) и в очередной раз спасти человечество от таинственного злодея…



Файл
Контейнер: MKV
Качество: BDRemux 2160p
Имя файла: The.Incredibles.2004.UHD.BDRemux.2160p.4K.UltraHD.HEVC.HDR.IVA(5xRUS.UKR.ENG).ExKinoRay.mkv
Размер файла: 53.2 GB
Длительность: 1 h 55 min
Общий битрейт: 66.0 Mb/s
Видео: HEVC, 3840x2160 (16:9), 23.976 fps, 43.3 Mb/s (0.218 bit/pixel)

Аудио #1: AC-3, 48.0 kHz, 6 ch, 640 kb/s, CBR (Russian) | Дублированный |
Аудио #2: DTS MA, 48.0 kHz, 6 ch, 3 523 kb/s (Russian) | DVO, Tycoon-studio |
Аудио #3: DTS, 48.0 kHz, 6 ch, 1 509 kb/s, CBR (Russian) | AVO, А.Гаврилов |
Аудио #4: AC-3, 48.0 kHz, 6 ch, 384 kb/s, CBR (Russian) | AVO, В.Королев |
Аудио #5: DTS MA, 48.0 kHz, 6 ch, 4 188 kb/s (Russian) | AVO, «Гоблин» Пучков |
Аудио #6: AC-3, 48.0 kHz, 2 ch, 192 kb/s, CBR (Ukrainian) | Дублированный |
Аудио #7: TrueHD+Atmos, 48.0 kHz, 8 ch, 7 354 kb/s, VBR (English) | Original |
Аудио #8: DTS MA / ES Matrix, 48.0 kHz, 7 / 6 ch, 3 840 kb/s (English) | Original |
Аудио #9: AC-3, 48.0 kHz, 6 ch, 640 kb/s, CBR (English) | Original |
Аудио #10: AC-3, 48.0 kHz, 2 ch, 320 kb/s, CBR (English) | Audiodeion |
Аудио #11: AAC HE-AAC / LC, 48.0 kHz / 24.0 kHz, 2 ch, 64.0 kb/s (English) | Commentary #1 |*
Аудио #12: AAC HE-AAC / LC, 48.0 kHz / 24.0 kHz, 2 ch, 64.0 kb/s (English) | Commentary #2 |*

Комментарии Брэд Бёрд и Джон Уолкер, комментарии мультипликаторов

Субтитры: Русские (Full, forced, Пучков, комментарии), английскикие (Full, forced, SDH)

Релиз от: Автор релиза: Ivantsov







Общее
Уникальный идентификатор : 154069271011506463975934060579367579984 (0x73E8A9898CD058BCC1A936D803227150)
Полное имя : The.Incredibles.2004.UHD.BDRemux.2160p.4K.UltraHD.HEVC.HDR.IVA(5xRUS.UKR.ENG).ExKinoRay.mkv
Формат : Matroska
Версия формата : Version 4 / Version 2
Размер файла : 53,2 Гбайт
Продолжительность : 1 ч. 55 м.
Режим общего битрейта : Переменный
Общий поток : 66,0 Мбит/сек
Название фильма : Суперсемейка / The Incredibles ( 2004 ) UHD BDRemux | HDR, 4K | IVA(5xRUS.UKR.ENG) | ExKinoRay
Дата кодирования : UTC 2018-06-08 10:58:17
Программа кодирования : mkvmerge v23.0.0 ('The Bride Said No') 64-bit
Библиотека кодирования : libebml v1.3.6 + libmatroska v1.4.9
Обложка : Yes
Attachments : cover

Видео
Идентификатор : 1
Формат : HEVC
Формат/Информация : High Efficiency Video Coding
Коммерческое название : HDR10
Профиль формата : Main 10@L5.1@High
Идентификатор кодека : V_MPEGH/ISO/HEVC
Продолжительность : 1 ч. 55 м.
Битрейт : 43,3 Мбит/сек
Ширина : 3840 пикселей
Высота : 2160 пикселей
Соотношение сторон : 16:9
Режим частоты кадров : Постоянный
Частота кадров : 23,976 (24000/1001) кадра/сек
Цветовое пространство : YUV
Субдискретизация насыщенности : 4:2:0 (Type 2)
Битовая глубина : 10 бит
Бит/(Пиксели*Кадры) : 0.218
Размер потока : 34,9 Гбайт (65%)
Язык : English
Default : Да
Forced : Нет
Цветовой диапазон : Limited
Основные цвета : BT.2020
Характеристики трансфера : PQ
Коэффициенты матрицы : BT.2020 non-constant
MasteringDisplay_Luminance : min: 0.0001 cd/m2, max: 1000 cd/m2

Аудио #1
Идентификатор : 2
Формат : AC-3
Формат/Информация : Audio Coding 3
Идентификатор кодека : A_AC3
Продолжительность : 1 ч. 55 м.
Вид битрейта : Постоянный
Битрейт : 640 Кбит/сек
Каналы : 6 каналов
Расположение каналов : Front: L C R, Side: L R, LFE
Частота : 48,0 КГц
Частота кадров : 31,250 кадров/сек (1536 SPF)
Битовая глубина : 16 бит
Метод сжатия : С потерями
Размер потока : 528 Мбайт (1%)
Заголовок : | Дублированный |
Язык : Russian
ServiceKind : Complete Main
Default : Да
Forced : Нет

Аудио #2
Идентификатор : 3
Формат : DTS
Формат/Информация : Digital Theater Systems
Профиль формата : MA / Core
Идентификатор кодека : A_DTS
Продолжительность : 1 ч. 55 м.
Вид битрейта : Переменный / Постоянный
Битрейт : 3523 Кбит/сек / 1509 Кбит/сек
Каналы : 6 каналов
Расположение каналов : Front: L C R, Side: L R, LFE
Частота : 48,0 КГц
Частота кадров : 93,750 кадра/сек (512 SPF)
Битовая глубина : 24 бит
Метод сжатия : Без потерь / Lossy
Размер потока : 2,84 Гбайт (5%)
Заголовок : | DVO, Tycoon-studio |
Язык : Russian
Default : Нет
Forced : Нет

Аудио #3
Идентификатор : 4
Формат : DTS
Формат/Информация : Digital Theater Systems
Идентификатор кодека : A_DTS
Продолжительность : 1 ч. 55 м.
Вид битрейта : Постоянный
Битрейт : 1509 Кбит/сек
Каналы : 6 каналов
Расположение каналов : Front: L C R, Side: L R, LFE
Частота : 48,0 КГц
Частота кадров : 93,750 кадра/сек (512 SPF)
Битовая глубина : 24 бит
Метод сжатия : С потерями
Размер потока : 1,22 Гбайт (2%)
Заголовок : | AVO, А.Гаврилов |
Язык : Russian
Default : Нет
Forced : Нет

Аудио #4
Идентификатор : 5
Формат : AC-3
Формат/Информация : Audio Coding 3
Идентификатор кодека : A_AC3
Продолжительность : 1 ч. 55 м.
Вид битрейта : Постоянный
Битрейт : 384 Кбит/сек
Каналы : 6 каналов
Расположение каналов : Front: L C R, Side: L R, LFE
Частота : 48,0 КГц
Частота кадров : 31,250 кадров/сек (1536 SPF)
Битовая глубина : 16 бит
Метод сжатия : С потерями
Размер потока : 317 Мбайт (1%)
Заголовок : | AVO, В.Королев |
Язык : Russian
ServiceKind : Complete Main
Default : Нет
Forced : Нет

Аудио #5
Идентификатор : 6
Формат : DTS
Формат/Информация : Digital Theater Systems
Профиль формата : MA / Core
Идентификатор кодека : A_DTS
Продолжительность : 1 ч. 55 м.
Вид битрейта : Переменный / Постоянный
Битрейт : 4188 Кбит/сек / 1509 Кбит/сек
Каналы : 6 каналов
Расположение каналов : Front: L C R, Side: L R, LFE
Частота : 48,0 КГц
Частота кадров : 93,750 кадра/сек (512 SPF)
Битовая глубина : 24 бит
Метод сжатия : Без потерь / Lossy
Размер потока : 3,38 Гбайт (6%)
Заголовок : | AVO, «Гоблин» Пучков |
Язык : Russian
Default : Нет
Forced : Нет

Аудио #6
Идентификатор : 7
Формат : AC-3
Формат/Информация : Audio Coding 3
Идентификатор кодека : A_AC3
Продолжительность : 1 ч. 55 м.
Вид битрейта : Постоянный
Битрейт : 192 Кбит/сек
Каналы : 2 канала
Расположение каналов : Front: L R
Частота : 48,0 КГц
Частота кадров : 31,250 кадров/сек (1536 SPF)
Битовая глубина : 16 бит
Метод сжатия : С потерями
Размер потока : 158 Мбайт (0%)
Заголовок : | Дублированный |
Язык : Ukrainian
ServiceKind : Complete Main
Default : Нет
Forced : Нет

Аудио #7
Идентификатор : 8
Формат : TrueHD
Профиль формата : TrueHD+Atmos / TrueHD
Идентификатор кодека : A_TRUEHD
Продолжительность : 1 ч. 55 м.
Вид битрейта : Переменный
Битрейт : 7354 Кбит/сек
Максимальный битрейт : 7071 Кбит/сек
Каналы : Object Based / 8 каналов
Расположение каналов : Object Based / Front: L C R, Side: L R, Back: L R, LFE
Частота : / 48,0 КГц
Частота кадров : 1200,000 кадров/сек (40 SPF)
Метод сжатия : Без потерь
Размер потока : 5,92 Гбайт (11%)
Заголовок : | Original |
Язык : English
Default : Нет
Forced : Нет

Аудио #8
Идентификатор : 9
Формат : DTS
Формат/Информация : Digital Theater Systems
Профиль формата : MA / ES Matrix / Core
Идентификатор кодека : A_DTS
Продолжительность : 1 ч. 55 м.
Вид битрейта : Переменный / Постоянный / Постоянный
Битрейт : 3840 Кбит/сек / 1509 Кбит/сек / 1509 Кбит/сек
Каналы : 7 каналов / 7 каналов / 6 каналов
Расположение каналов : Front: L C R, Side: L R, Back: C, LFE / Front: L C R, Side: L R, Back: C, LFE / Front: L C R, Side: L R, LFE
Частота : 48,0 КГц
Частота кадров : 93,750 кадра/сек (512 SPF)
Битовая глубина : 24 бит
Метод сжатия : Без потерь / Lossy / Lossy
Размер потока : 3,09 Гбайт (6%)
Заголовок : | Original, DTS-HD |
Язык : English
Default : Нет
Forced : Нет

Аудио #9
Идентификатор : 10
Формат : AC-3
Формат/Информация : Audio Coding 3
Идентификатор кодека : A_AC3
Продолжительность : 1 ч. 55 м.
Вид битрейта : Постоянный
Битрейт : 640 Кбит/сек
Каналы : 6 каналов
Расположение каналов : Front: L C R, Side: L R, LFE
Частота : 48,0 КГц
Частота кадров : 31,250 кадров/сек (1536 SPF)
Битовая глубина : 16 бит
Метод сжатия : С потерями
Размер потока : 528 Мбайт (1%)
Заголовок : | Original, AC3 Core |
Язык : English
ServiceKind : Complete Main
Default : Нет
Forced : Нет

Аудио #10
Идентификатор : 11
Формат : AC-3
Формат/Информация : Audio Coding 3
Идентификатор кодека : A_AC3
Продолжительность : 1 ч. 55 м.
Вид битрейта : Постоянный
Битрейт : 320 Кбит/сек
Каналы : 2 канала
Расположение каналов : Front: L R
Частота : 48,0 КГц
Частота кадров : 31,250 кадров/сек (1536 SPF)
Битовая глубина : 16 бит
Метод сжатия : С потерями
Размер потока : 264 Мбайт (0%)
Заголовок : | Audiodeion |
Язык : English
ServiceKind : Complete Main
Default : Нет
Forced : Нет

Аудио #11
Идентификатор : 12
Формат : AAC
Формат/Информация : Advanced Audio Codec
Профиль формата : HE-AAC / LC
Настройки формата : Explicit
Идентификатор кодека : A_AAC-2
Продолжительность : 1 ч. 55 м.
Битрейт : 64,0 Кбит/сек
Каналы : 2 канала
Расположение каналов : Front: L R
Частота : 48,0 КГц / 24,0 КГц
Частота кадров : 23,438 кадра/сек (1024 SPF)
Метод сжатия : С потерями
Размер потока : 52,8 Мбайт (0%)
Заголовок : | Commentary #1 |
Язык : English
Default : Нет
Forced : Нет

Аудио #12
Идентификатор : 13
Формат : AAC
Формат/Информация : Advanced Audio Codec
Профиль формата : HE-AAC / LC
Настройки формата : Explicit
Идентификатор кодека : A_AAC-2
Продолжительность : 1 ч. 55 м.
Битрейт : 64,0 Кбит/сек
Каналы : 2 канала
Расположение каналов : Front: L R
Частота : 48,0 КГц / 24,0 КГц
Частота кадров : 23,438 кадра/сек (1024 SPF)
Метод сжатия : С потерями
Размер потока : 52,9 Мбайт (0%)
Заголовок : | Commentary #2 |
Язык : English
Default : Нет
Forced : Нет

Текст #1
Идентификатор : 14
Формат : UTF-8
Идентификатор кодека : S_TEXT/UTF8
Идентификатор кодека/Информация : UTF-8 Plain Text
Продолжительность : 1 ч. 46 м.
Битрейт : 1 бит/сек
ElementCount : 30
Размер потока : 1,00 Кбайт (0%)
Заголовок : Forced
Язык : Russian
Default : Да
Forced : Да

Текст #2
Идентификатор : 15
Формат : UTF-8
Идентификатор кодека : S_TEXT/UTF8
Идентификатор кодека/Информация : UTF-8 Plain Text
Продолжительность : 1 ч. 47 м.
Битрейт : 94 бит/сек
ElementCount : 1197
Размер потока : 74,4 Кбайт (0%)
Заголовок : Blu-ray
Язык : Russian
Default : Нет
Forced : Нет

Текст #3
Идентификатор : 16
Формат : UTF-8
Идентификатор кодека : S_TEXT/UTF8
Идентификатор кодека/Информация : UTF-8 Plain Text
Продолжительность : 1 ч. 47 м.
Битрейт : 100 бит/сек
ElementCount : 1180
Размер потока : 78,7 Кбайт (0%)
Заголовок : Goblin
Язык : Russian
Default : Нет
Forced : Нет

Текст #4
Идентификатор : 17
Формат : UTF-8
Идентификатор кодека : S_TEXT/UTF8
Идентификатор кодека/Информация : UTF-8 Plain Text
Продолжительность : 1 ч. 55 м.
Битрейт : 169 бит/сек
ElementCount : 1823
Размер потока : 143 Кбайт (0%)
Заголовок : Commentary #1
Язык : Russian
Default : Нет
Forced : Нет

Текст #5
Идентификатор : 18
Формат : UTF-8
Идентификатор кодека : S_TEXT/UTF8
Идентификатор кодека/Информация : UTF-8 Plain Text
Продолжительность : 1 ч. 54 м.
Битрейт : 190 бит/сек
ElementCount : 2178
Размер потока : 159 Кбайт (0%)
Заголовок : Commentary #2
Язык : Russian
Default : Нет
Forced : Нет

Текст #6
Идентификатор : 19
Формат : UTF-8
Идентификатор кодека : S_TEXT/UTF8
Идентификатор кодека/Информация : UTF-8 Plain Text
Продолжительность : 1 ч. 40 м.
Битрейт : 0 бит/сек
ElementCount : 4
Размер потока : 81,0 байт (0%)
Заголовок : Forced
Язык : English
Default : Нет
Forced : Да

Текст #7
Идентификатор : 20
Формат : UTF-8
Идентификатор кодека : S_TEXT/UTF8
Идентификатор кодека/Информация : UTF-8 Plain Text
Продолжительность : 1 ч. 47 м.
Битрейт : 59 бит/сек
ElementCount : 1217
Размер потока : 46,9 Кбайт (0%)
Заголовок : Full
Язык : English
Default : Нет
Forced : Нет

Текст #8
Идентификатор : 21
Формат : UTF-8
Идентификатор кодека : S_TEXT/UTF8
Идентификатор кодека/Информация : UTF-8 Plain Text
Продолжительность : 1 ч. 47 м.
Битрейт : 64 бит/сек
ElementCount : 1337
Размер потока : 50,4 Кбайт (0%)
Заголовок : SDH
Язык : English
Default : Нет
Forced : Нет

Меню
00:00:00.000 : en:1. Golden Age
00:09:14.554 : en:2. Weddings & Lawsuits
00:11:32.734 : en:3. 15 Years & 50 Pounds Later
00:13:31.352 : en:4. After School
00:17:08.527 : en:5. Family Dinner
00:20:44.910 : en:6. 2 Ex-Supers
00:26:53.529 : en:7. A Super Defeated
00:30:42.215 : en:8. Help Wanted
00:34:54.592 : en:9. Nomanisan
00:41:27.235 : en:10. New & Improved
00:46:01.675 : en:11. Helen Suspects
00:48:54.515 : en:12. Helen & E
00:50:02.124 : en:13. An Important Meeting
00:54:01.780 : en:14. E's Lab
00:57:09.551 : en:15. Secrets Revealed
01:00:35.799 : en:16. Suiting Up
01:05:04.859 : en:17. Missile Lock
01:10:53.708 : en:18. Out To Sea
01:12:57.915 : en:19. Good Guys/Bad Guys
01:16:27.583 : en:20. Elastigirl Returns
01:19:19.213 : en:21. Caves & Rockets
01:21:13.911 : en:22. Lost & Found
01:23:59.659 : en:23. 100 Mile Dash
01:27:05.637 : en:24. Reunited
01:30:29.841 : en:25. Bob's Confession
01:32:47.395 : en:26. Frozone & Honey
01:33:33.024 : en:27. Omnidroid Attacks
01:34:30.540 : en:28. Road Trip
01:37:03.151 : en:29. The Incredibles vs. The Omnidroid
01:41:58.070 : en:30. Past vs. Future
01:45:40.000 : en:31. Happy Endings
01:47:33.322 : en:32. End Credits
 
Не забывайте говорить Спасибо. Не уходите с раздачи!   
Торрент: Зарегистрирован [08 июн 2018, 15:21] Для скачивания .torrent
необходима регистрация
Или скачать с помощью
MediaGet
Статус:
Проверен
 
.torrent скачан: 0 раз
Хэш: 3f9adae9dda5e54e134f724e901275c87e8a38d5
Размер: 53.22 ГБ (57 146 829 547 байт)
Стать Автором раздачи
 
 
Раздал: 100 ГБ
Скачал: 0 байт
Ратио: Seed.
Сообщения: 57437
Зарегистрирован: 31 мар 2015, 18:04


  • Похожие торренты
    Ответы
    Просмотры
    Последнее сообщение

Вернуться в Мультфильмы и мультсериалы

Ресурс не предоставляет электронные версии произведений, а занимается лишь коллекционированием и каталогизацией ссылок, присылаемых и публикуемых на форуме нашими читателями. Если вы являетесь правообладателем какого-либо представленного материала и не желаете чтобы ссылка на него находилась в нашем каталоге, свяжитесь с нами и мы незамедлительно удалим её. Файлы для обмена на трекере предоставлены пользователями сайта, и администрация не несёт ответственности за их содержание. Просьба не заливать файлы, защищенные авторскими правами, а также файлы нелегального содержания!
cron