Смешарики. Дежавю (Денис Чернов) [2018, Россия, Мультипликация, WEB-DL 1080p]

 
 Статистика раздачи 
Размер: 2.9 ГБ   |  Зарегистрирован: 07 июн 2018, 10:52   |   .torrent скачан: 0 раз
Сидеров: 1  [ 0 байт/сек ]     Личеров: 0  [ 0 байт/сек ]  
  

Смешарики. Дежавю (Денис Чернов) [2018, Россия, Мультипликация, WEB-DL 1080p]

Сообщение Nakazhu » 07 июн 2018, 10:52

Смешарики. Дежавю
Страна: Россия
Жанр: Мультипликация
Продолжительность: 01:25:07
Год выпуска: 2018
Перевод: Не требуется
Русские субтитры: нет
Режиссёр: Денис Чернов
Роли озвучивали: Павел Деревянко, Антон Виноградов, Сергей Мардарь, Михаил Черняк, Владимир Постников, Светлана Письмиченко, Вадим Бочанов, Михаил Хрусталёв
Описание: Крош решает устроить незабываемый день рождения Копатыча — он обращается в агентство «Дежавю», которое обещает своим клиентам удивительные путешествия во времени. Но из-за несоблюдения условий договора всех смешариков раскидывает во времени, а Крошу придется собирать друзей по разным эпохам в компании своего второго «Я» — повзрослевшего и ворчливого Шорка, появившегося из-за временного парадокса.
Качество: WEB-DL 1080p
Формат: MKV
Видео: AVC, 1912x796 (2.40:1), 23.976 fps, 4 404 Kbps (0.121 bit/pixel)
Аудио: AC-3, 48.0 KHz, 6 ch, 384 Kbps, CBR (Russian) [iTunes]
Субтитры: отсутствуют
Семпл: Забираем тут
Код: Выделить всё
Общее
Уникальный идентификатор                 : 145502406943785174338983189120486518984 (0x6D76BE87419420BE7C04072EDD68B0C8)
Полное имя                               : Smeshariki Dezavy 2018 WEB DL 1080p.mkv
Формат                                   : Matroska
Версия формата                           : Version 4 / Version 2
Размер файла                             : 2,90 Гбайт
Продолжительность                        : 1 ч. 25 м.
Общий поток                              : 4885 Кбит/сек
Дата кодирования                         : UTC 2018-06-07 01:14:31
Программа кодирования                    : mkvmerge v23.0.0 ('The Bride Said No') 32-bit
Библиотека кодирования                   : libebml v1.3.6 + libmatroska v1.4.9
Видео
Идентификатор                            : 2
Формат                                   : AVC
Формат/Информация                        : Advanced Video Codec
Профиль формата                          : High@L4
Параметр CABAC формата                   : Да
Параметр ReFrames формата                : 5 кадров
Идентификатор кодека                     : V_MPEG4/ISO/AVC
Продолжительность                        : 1 ч. 25 м.
Битрейт                                  : 4499 Кбит/сек
Ширина                                   : 1912 пикселей
Высота                                   : 796 пикселей
Соотношение сторон                       : 2,40:1
Режим частоты кадров                     : Постоянный
Частота кадров                           : 23,976 кадра/сек
Цветовое пространство                    : YUV
Субдискретизация насыщенности            : 4:2:0
Битовая глубина                          : 8 бит
Тип развёртки                            : Прогрессивная
Бит/(Пиксели*Кадры)                      : 0.123
Размер потока                            : 2,68 Гбайт (92%)
Язык                                     : English
Default                                  : Да
Forced                                   : Нет
Цветовой диапазон                        : Limited
Основные цвета                           : BT.709
Характеристики трансфера                 : BT.709
Коэффициенты матрицы                     : BT.709
Аудио
Идентификатор                            : 1
Формат                                   : AC-3
Формат/Информация                        : Audio Coding 3
Расширение режима                        : CM (complete main)
Параметр Endianness формата              : Big
Идентификатор кодека                     : A_AC3
Продолжительность                        : 1 ч. 25 м.
Вид битрейта                             : Постоянный
Битрейт                                  : 384 Кбит/сек
Каналы                                   : 6 каналов
Расположение каналов                     : Front: L C R, Side: L R, LFE
Частота                                  : 48,0 КГц
Частота кадров                           : 31,250 кадров/сек (1536 spf)
Метод сжатия                             : С потерями
Задержка видео                           : -42 мс.
Размер потока                            : 234 Мбайт (8%)
Язык                                     : Russian
Default                                  : Да
Forced                                   : Нет
Меню
00:00:00.000                             : en:1
00:04:23.000                             : en:2
00:14:04.000                             : en:3
00:30:01.000                             : en:4
00:44:52.000                             : en:5
00:50:51.000                             : en:6
01:02:17.000                             : en:7
01:11:52.000                             : en:8
01:20:03.000                             : en:9

 
Не забывайте говорить Спасибо. Не уходите с раздачи!   
Торрент: Зарегистрирован [07 июн 2018, 10:52] Для скачивания .torrent
необходима регистрация
Или скачать с помощью
MediaGet
Статус:
Проверен
 
.torrent скачан: 0 раз
Хэш: 7f112296133921d310559acde006738ae17e5042
Размер: 2.9 ГБ (3 118 606 631 байт)
Стать Автором раздачи
 
 
Раздал: 0 байт
Скачал: 0 байт
Ратио: Inf.
Сообщения: 471957
Зарегистрирован: 17 апр 2014, 13:57


  • Похожие торренты
    Ответы
    Просмотры
    Последнее сообщение

Вернуться в Мультфильмы и мультсериалы

Ресурс не предоставляет электронные версии произведений, а занимается лишь коллекционированием и каталогизацией ссылок, присылаемых и публикуемых на форуме нашими читателями. Если вы являетесь правообладателем какого-либо представленного материала и не желаете чтобы ссылка на него находилась в нашем каталоге, свяжитесь с нами и мы незамедлительно удалим её. Файлы для обмена на трекере предоставлены пользователями сайта, и администрация не несёт ответственности за их содержание. Просьба не заливать файлы, защищенные авторскими правами, а также файлы нелегального содержания!
cron