Юнион Пасифик / Union Pacific (Сесил Б. ДеМилль / Cecil B. DeMille) [1939, США, драма, вестерн, DVD9 (Custom)] MVO + Original Eng

 
 Статистика раздачи 
Размер: 7.93 ГБ   |  Зарегистрирован: 06 июн 2018, 19:21   |   .torrent скачан: 0 раз
Сидеров: 1  [ 0 байт/сек ]     Личеров: 0  [ 0 байт/сек ]  
  

Юнион Пасифик / Union Pacific (Сесил Б. ДеМилль / Cecil B. DeMille) [1939, США, драма, вестерн, DVD9 (Custom)] MVO + Original Eng

Сообщение Nakazhu » 06 июн 2018, 19:21

Юнион Пасифик / Union Pacific
Страна: США
Студия: Paramount Pictures
Жанр: драма, вестерн
Год выпуска: 1939
Продолжительность: 02:15:30
Перевод: Профессиональный (многоголосый, закадровый)
Субтитры: английские, испанские, французские
Оригинальная аудиодорожка: английская
Режиссер: Сесил Б. ДеМилль / Cecil B. DeMille
В ролях: Барбара Стэнвик, Джоэл МакКри, Аким Тамирофф, Роберт Престон, Линн Оверман, Брайан Донлеви, Роберт Бэррат, Энтони Куинн, Стэнли Риджес, Генри Колкер
Описание: Один из последних законопроектов, который подписал президент Линкольн, был законопроект о прокладке трансконтинентальной железной дороги через пустыню в Калифорнию, чтобы соединить между собой два океана, Север и Юг. Однако нечестный делец и политик Аса Бэрроуз надеется извлечь прибыль именно от задержки строительства.
Меню: есть, английское
Тип релиза: DVD9 (Custom)
Контейнер: DVD-Video
Видео: NTSC 4:3 (720x480(0.969)) MPEG Video, 23,976 кадр/сек, 8030 Кбит/сек
Аудио: Russian (Dolby AC-3, 2 ch) 160 Кбит/сек, 48.0 КГц
Аудио 2: English (Dolby, AC-3, 2 ch) 112 Кбит/сек, 48.0 КГц
Синхронизация аудиодорожки и релиз DVD: Mister-X
Общее
Полное имя : YUnion_Pasifik_[torrents.ru]\VIDEO_TS\VTS_01_1.VOB
Формат : MPEG-PS
Размер файла : 1024 Мбайт
Продолжительность : 16 м. 54 с.
Режим общего битрейта : Переменный
Общий поток : 8471 Кбит/сек
Видео
Идентификатор : 224 (0xE0)
Формат : MPEG Video
Версия формата : Version 2
Профиль формата : Main@Main
Настройки формата : CustomMatrix / BVOP
Параметр BVOP формата : Да
Параметр матрицы формата : Выборочная
Параметр GOP формата : Variable
Продолжительность : 16 м. 54 с.
Вид битрейта : Переменный
Битрейт : 8030 Кбит/сек
Максимальный битрейт : 9800 Кбит/сек
Ширина : 720 пикселей
Высота : 480 пикселей
Соотношение сторон : 4:3
Частота кадров : 23,976 (24000/1001) кадра/сек
Цветовое пространство : YUV
Субдискретизация насыщенности : 4:2:0
Битовая глубина : 8 бит
Тип развёртки : Прогрессивная
Порядок развёртки : 2:3 Pulldown
Метод сжатия : С потерями
Бит/(Пиксели*Кадры) : 0.969
Временной код первого кадра : 00:59:59;00
Оригинал временного кода : Group of pictures header
Размер потока : 971 Мбайт (95%)
Аудио #1
Идентификатор : 189 (0xBD)-128 (0x80)
Формат : AC-3
Формат/Информация : Audio Coding 3
Режим смешивания : DVD-Video
Продолжительность : 16 м. 53 с.
Вид битрейта : Постоянный
Битрейт : 160 Кбит/сек
Каналы : 2 канала
Расположение каналов : Front: L R
Частота : 48,0 КГц
Частота кадров : 31,250 кадров/сек (1536 SPF)
Битовая глубина : 16 бит
Метод сжатия : С потерями
Размер потока : 19,3 Мбайт (2%)
ServiceKind/String : Complete Main
Аудио #2
Идентификатор : 189 (0xBD)-129 (0x81)
Формат : AC-3
Формат/Информация : Audio Coding 3
Режим смешивания : DVD-Video
Продолжительность : 16 м. 54 с.
Вид битрейта : Постоянный
Битрейт : 112 Кбит/сек
Каналы : 2 канала
Расположение каналов : Front: L R
Частота : 48,0 КГц
Частота кадров : 31,250 кадров/сек (1536 SPF)
Битовая глубина : 16 бит
Метод сжатия : С потерями
Размер потока : 13,5 Мбайт (1%)
ServiceKind/String : Complete Main
Текст #1
Идентификатор : 189 (0xBD)-32 (0x20)
Формат : RLE
Формат/Информация : Run-length encoding
Режим смешивания : DVD-Video
Текст #2
Идентификатор : 189 (0xBD)-33 (0x21)
Формат : RLE
Формат/Информация : Run-length encoding
Режим смешивания : DVD-Video
Текст #3
Идентификатор : 189 (0xBD)-34 (0x22)
Формат : RLE
Формат/Информация : Run-length encoding
Режим смешивания : DVD-Video
 
Не забывайте говорить Спасибо. Не уходите с раздачи!   
Торрент: Зарегистрирован [06 июн 2018, 19:21] Скачать торрент
Скачать торрент
[ Размер 21.51 КБ / Просмотров 14 ]
Статус:
Проверен
 
.torrent скачан: 0 раз
Хэш: 09492531918f82a16b00f1f81650ed52917b1aac
Размер: 7.93 ГБ (8 518 399 277 байт)
Стать Автором раздачи
 
 
Раздал: 0 байт
Скачал: 0 байт
Ратио: Inf.
Сообщения: 487468
Зарегистрирован: 17 апр 2014, 13:57


  • Похожие торренты
    Ответы
    Просмотры
    Последнее сообщение

Вернуться в Классика зарубежного кино (DVD Video)

Ресурс не предоставляет электронные версии произведений, а занимается лишь коллекционированием и каталогизацией ссылок, присылаемых и публикуемых на форуме нашими читателями. Если вы являетесь правообладателем какого-либо представленного материала и не желаете чтобы ссылка на него находилась в нашем каталоге, свяжитесь с нами и мы незамедлительно удалим её. Файлы для обмена на трекере предоставлены пользователями сайта, и администрация не несёт ответственности за их содержание. Просьба не заливать файлы, защищенные авторскими правами, а также файлы нелегального содержания!
cron