Королева тигров / Tiger Queen (С. Налламуту / S. Nallamuthu) [2010, Документальный, HDTVRip]

 
 Статистика раздачи 
Размер: 699.25 МБ   |  Зарегистрирован: 04 июн 2018, 09:54   |   .torrent скачан: 0 раз
Сидеров: 1  [ 0 байт/сек ]     Личеров: 0  [ 0 байт/сек ]  
  

Королева тигров / Tiger Queen (С. Налламуту / S. Nallamuthu) [2010, Документальный, HDTVRip]

Сообщение Nakazhu » 04 июн 2018, 09:54

Королева тигров / Tiger Queen
Год выпуска: 2010
Страна: Kosmik Global Media Private Ltd (Индия), Grey Films Indis Private Ltd (Индия), Parthenon Entertainment (Великобритания)
Жанр: Документальный
Продолжительность: 00:44:58
Перевод: Профессиональный (полное дублирование)
Русские субтитры: нет
Режиссер: С. Налламуту / S. Nallamuthu
Описание: В самом сердце Индии одна древняя династия тигров находится под угрозой! Великая мать Мачли правила этим королевством более 10 лет. Теперь на трон хочет взойти ее дочь. А также другие претенденты... Но эту добычу, которой так сложно завладеть, еще труднее удержать. Впереди свирепые битвы, опасные связи и сражения за территорию. Кто станет следующим правителем Рантамбора?...
Доп. информация: Релиз студии Кинозал
Автор рипа supernova
Смотрите также: HDTVRip 720p --> http://rutracker.org/forum/viewtopic.php?t=3349804

Качество: HDTVRip
Формат: AVI
Видео кодек: XviD
Аудио кодек: AC3
Видео: XviD, 1979 Кбит/с, 704x400, 25 fps
Аудио: Русский (AC3, 2 ch, 192 Кбит/с, 48 kHz)


General
Complete name : .avi
Format : AVI
Format/Info : Audio Video Interleave
File size : 701 MiB
Duration : 44mn 58s
Overall bit rate : 2 180 Kbps
Writing application : VirtualDubMod 1.5.10.2 (build 2542/release)
Writing library : VirtualDubMod build 2542/release
Video #0
ID : 0
Format : MPEG-4 Visual
Format profile : AdvancedSimple@L5
Format settings, BVOP : Yes
Format settings, QPel : No
Format settings, GMC : No warppoints
Format settings, Matrix : Custom
Codec ID : XVID
Codec ID/Hint : XviD
Duration : 44mn 58s
Bit rate : 1 979 Kbps
Width : 704 pixels
Height : 400 pixels
Display aspect ratio : 16:9
Frame rate : 25.000 fps
Resolution : 24 bits
Colorimetry : 4:2:0
Scan type : Progressive
Bits/(Pixel*Frame) : 0.281
Stream size : 637 MiB (91%)
Writing library : XviD 1.2.1 (UTC 2008-12-04)
Audio #1
ID : 1
Format : AC-3
Format/Info : Audio Coding 3
Codec ID : 2000
Duration : 44mn 58s
Bit rate mode : Constant
Bit rate : 192 Kbps
Channel(s) : 2 channels
Channel positions : L R
Sampling rate : 48.0 KHz
Stream size : 61.8 MiB (9%)
Alignment : Split accross interleaves
Interleave, duration : 40 ms (1.00 video frame)
Interleave, preload duration : 500 ms
 
Не забывайте говорить Спасибо. Не уходите с раздачи!   
Торрент: Зарегистрирован [04 июн 2018, 09:54] Для скачивания .torrent
необходима регистрация
Или скачать с помощью
MediaGet
Статус:
Проверен
 
.torrent скачан: 0 раз
Хэш: 1ed584873e3511f2f220545be00fe4ef5504bdc7
Размер: 699.25 МБ (733 216 768 байт)
Стать Автором раздачи
 
 
Раздал: 0 байт
Скачал: 0 байт
Ратио: Inf.
Сообщения: 486963
Зарегистрирован: 17 апр 2014, 13:57


  • Похожие торренты
    Ответы
    Просмотры
    Последнее сообщение

Вернуться в Флора и фауна (видео)

Ресурс не предоставляет электронные версии произведений, а занимается лишь коллекционированием и каталогизацией ссылок, присылаемых и публикуемых на форуме нашими читателями. Если вы являетесь правообладателем какого-либо представленного материала и не желаете чтобы ссылка на него находилась в нашем каталоге, свяжитесь с нами и мы незамедлительно удалим её. Файлы для обмена на трекере предоставлены пользователями сайта, и администрация не несёт ответственности за их содержание. Просьба не заливать файлы, защищенные авторскими правами, а также файлы нелегального содержания!
cron