Самоволка / Львиное сердце / A.W.O.L.: Absent Without Leave / Lionheart / Leon (Шелдон Леттич / Sheldon Lettich) [1990, США, Боевик, DVDRip] [Полная версия / Full Screen] AVO (Леша-прапорщик) + AVO (Виктор Махонько) + 2 VO + Original Eng + Fra

 
 Статистика раздачи 
Размер: 2.02 ГБ   |  Зарегистрирован: 31 май 2018, 21:23   |   .torrent скачан: 0 раз
Сидеров: 1  [ 0 байт/сек ]     Личеров: 0  [ 0 байт/сек ]  
  

Самоволка / Львиное сердце / A.W.O.L.: Absent Without Leave / Lionheart / Leon (Шелдон Леттич / Sheldon Lettich) [1990, США, Боевик, DVDRip] [Полная версия / Full Screen] AVO (Леша-прапорщик) + AVO (Виктор Махонько) + 2 VO + Original Eng + Fra

Сообщение Nakazhu » 31 май 2018, 21:23

Самоволка / Львиное сердце / A.W.O.L.: Absent Without Leave / Lionheart / Full Contact / Leon
[Полная версия / Full Screen]
«Too tough to die»
Страна: США
Жанр: Боевик
Год выпуска: 1990
Продолжительность: 01:43:30
Перевод: Авторский (одноголосый закадровый) Леша-прапорщик
Перевод 2: Авторский (одноголосый закадровый) Виктор Махонько
Субтитры: нет
Режиссер: Шелдон Леттич / Sheldon Lettich
В ролях: Жан-Клод Ван Дамм, Харрисон Пейдж, Дебора Реннард, Лиза Пеликан, Эшли Джонсон, Брайан Томпсон, Войо Горич, Мишель Кисси, Джордж МакДэниэл, Эрик Карсон
Описание: Узнав, что его брат в Лос-Анджелесе серьезно ранен, Лайон Голтье дезертирует из французского иностранного легиона, базирующегося в отдаленном районе Северной Африки.
Скрываясь от двух боевиков-легионеров, которым дан приказ вернуть его любой ценой, Лайон против своего желания становится участником незаконных боев современных гладиаторов, дерущихся голыми руками для развлечения богатых. Ему нужны деньги, чтобы помочь семье своего брата.
Доп. информация: Это полная версия фильма, здесь присутствуют все вырезанные сцены которые были удалены в других версиях этого фильма.
Дорожка с Лешей-прапорщиком синхронизирована и наложена ale_x2008 при помощи Adobe Audition, Sony Vegas и VirtualDubMod.
За оцифрованную с VHS дорожку благодарим - alenavova
Дорожка с В. Махонько синхронизирована и наложена ale_x2008 при помощи Sony Vegas и VirtualDubMod.
За оцифрованную с VHS дорожку благодарим - Ckfypbr

Дорожка с VO синхронизирована и наложена ale_x2008 при помощи Adobe Audition, Sony Vegas и VirtualDubMod.
За оцифрованную с VHS дорожку благодарим - Selena_a
Три дорожки на французской подложке.

Дорожка с VO синхронизирована и наложена ale_x2008 при помощи Adobe Audition, Sony Vegas и VirtualDubMod.
За оцифрованную с VHS дорожку благодарим - d_rocker
Релиз
Сэмпл: https://yadi.sk/i/7HwSD1EO3VPgBa
Качество видео: DVDRip
Формат видео: AVI
Видео: XviD build 46, 640x480 (1.33:1), 25 fps, 1622 kbps avg, 0.21 bit/pixel
Аудио: AC3 Dolby Digital, 48000Hz 2/0 (L,R) ch (mono), 192.00 kbps avg (Леша-прапорщик)
Аудио 2: AC3 Dolby Digital, 48000Hz 2/0 (L,R) ch (mono), 192.00 kbps avg (Махонько)
Аудио 3: AC3 Dolby Digital, 48000Hz 2/0 (L,R) ch (mono), 192.00 kbps avg VO (d_rocker) - отдельно
Аудио 4: AC3 Dolby Digital, 48000Hz 2/0 (L,R) ch (mono), 192.00 kbps avg VO (Selena_a) - отдельно
Аудио 5: AC3 Dolby Digital, 48000Hz 2/0 (L,R) ch, 192.00 kbps avg (Eng) - отдельно
Аудио 6: AC3 Dolby Digital, 48000Hz 2/0 (L,R) ch, 192.00 kbps avg (Fra) - отдельно
Код: Выделить всё
Самоволка - Lionheart [by ale_x2008].avi
Format                      : AVI
Format/Info                 : Audio Video Interleave
File size                   : 1.46 GiB
Duration                    : 1 h 43 min
Overall bit rate            : 2 022 kb/s
Movie name                  : Самоволка - Lionheart [by ale_x2008]
Director                    : by ale_x2008
Writing application         : VirtualDubMod 1.5.10.2 (build 2540/release)
Copyright                   : Edich2
Comment                     : RuTracker.org
Video
ID                          : 0
Format                      : MPEG-4 Visual
Format profile              : Advanced Simple@L5
Format settings, BVOP       : 2
Format settings, QPel       : No
Format settings, GMC        : No warppoints
Format settings, Matrix     : Default (H.263)
Codec ID                    : XVID
Codec ID/Hint               : XviD
Duration                    : 1 h 43 min
Bit rate                    : 1 623 kb/s
Width                       : 640 pixels
Height                      : 480 pixels
Display aspect ratio        : 4:3
Frame rate                  : 25.000 FPS
Color space                 : YUV
Chroma subsampling          : 4:2:0
Bit depth                   : 8 bits
Scan type                   : Progressive
Compression mode            : Lossy
Bits/(Pixel*Frame)          : 0.211
Stream size                 : 1.17 GiB (80%)
Writing library             : XviD 1.1.2 (UTC 2006-11-01)
Audio #1
ID                          : 1
Format                      : AC-3
Format/Info                 : Audio Coding 3
Format settings, Endianness : Big
Codec ID                    : 2000
Duration                    : 1 h 43 min
Bit rate mode               : Constant
Bit rate                    : 192 kb/s
Channel(s)                  : 2 channels
Channel positions           : Front: L R
Sampling rate               : 48.0 kHz
Frame rate                  : 31.250 FPS (1536 spf)
Bit depth                   : 16 bits
Compression mode            : Lossy
Stream size                 : 142 MiB (9%)
Alignment                   : Split accross interleaves
Interleave, duration        : 40  ms (1.00 video frame)
Interleave, preload duratio : 500  ms
Service kind                : Complete Main
Audio #2
ID                          : 2
Format                      : AC-3
Format/Info                 : Audio Coding 3
Format settings, Endianness : Big
Codec ID                    : 2000
Duration                    : 1 h 43 min
Bit rate mode               : Constant
Bit rate                    : 192 kb/s
Channel(s)                  : 2 channels
Channel positions           : Front: L R
Sampling rate               : 48.0 kHz
Frame rate                  : 31.250 FPS (1536 spf)
Bit depth                   : 16 bits
Compression mode            : Lossy
Stream size                 : 142 MiB (9%)
Alignment                   : Split accross interleaves
Interleave, duration        : 40  ms (1.00 video frame)
Interleave, preload duratio : 500  ms
Service kind                : Complete Main

ТОРРЕНТ ПЕРЕЗАЛИТ
ДОБАВЛЕНЫ ДВА РЕДКИХ КАССЕТНЫХ ПЕРЕВОДА VO
 
Не забывайте говорить Спасибо. Не уходите с раздачи!   
Торрент: Зарегистрирован [31 май 2018, 21:23] Скачать торрент
Скачать торрент
[ Размер 10.81 КБ / Просмотров 2 ]
Статус:
Проверен
 
.torrent скачан: 0 раз
Хэш: 38e0f8f6f412b0fc20b16cb0cdfa2e0ccbc50b01
Размер: 2.02 ГБ (2 165 396 736 байт)
Стать Автором раздачи
 
 
Раздал: 0 байт
Скачал: 0 байт
Ратио: Inf.
Сообщения: 487468
Зарегистрирован: 17 апр 2014, 13:57


  • Похожие торренты
    Ответы
    Просмотры
    Последнее сообщение

Вернуться в Зарубежные фильмы до 1990 года

Ресурс не предоставляет электронные версии произведений, а занимается лишь коллекционированием и каталогизацией ссылок, присылаемых и публикуемых на форуме нашими читателями. Если вы являетесь правообладателем какого-либо представленного материала и не желаете чтобы ссылка на него находилась в нашем каталоге, свяжитесь с нами и мы незамедлительно удалим её. Файлы для обмена на трекере предоставлены пользователями сайта, и администрация не несёт ответственности за их содержание. Просьба не заливать файлы, защищенные авторскими правами, а также файлы нелегального содержания!
cron