Амазонки на Луне / Amazon Women on the Moon (Джо Данте / Joe Dante, Карл Готтлиб / Carl Gottlieb, Питер Хортон / Peter Horton, Джон Лэндис / John Landis, Роберт К. Уайсс / Robert K. Weiss) [1987, США, комедия, BDRip-AVC] DVO + Sub Eng + Original Eng

 
 Статистика раздачи 
Размер: 1.46 ГБ   |  Зарегистрирован: 31 май 2018, 09:30   |   .torrent скачан: 0 раз
Сидеров: 1  [ 0 байт/сек ]     Личеров: 0  [ 0 байт/сек ]  
  

Амазонки на Луне / Amazon Women on the Moon (Джо Данте / Joe Dante, Карл Готтлиб / Carl Gottlieb, Питер Хортон / Peter Horton, Джон Лэндис / John Landis, Роберт К. Уайсс / Robert K. Weiss) [1987, США, комедия, BDRip-AVC] DVO + Sub Eng + Original Eng

Сообщение Nakazhu » 31 май 2018, 09:30

Амазонки на Луне / Amazon Women on the Moon
Страна: США
Жанр: комедия
Год выпуска: 1987
Продолжительность: 01:24:26
Перевод: Профессиональный (двухголосый закадровый)
Субтитры: английские
Оригинальная аудиодорожка: английский
Режиссер: Джо Данте / Joe Dante, Карл Готтлиб / Carl Gottlieb, Питер Хортон / Peter Horton, Джон Лэндис / John Landis, Роберт К. Уайсс / Robert K. Weiss
В ролях: Арсенио Холл, Доналд Ф. Мюик, Моник Габриэль, Лу Джекоби, Эрика Йон, Дэбби Дэвисон, Роб Крауш, Фил Хартмен, Кори Бертон, Мишель Пфайффер...
Описание: Если вы думаете, что это история о том, как прекрасные амазонки обустраивают свою жизнь на Луне, то очень сильно ошибаетесь. Это пародия на американскую действительность. Создателям фильма давно хотелось снять смешную комедию о повседневной жизни американцев, посмеяться над порядками в обществе, заставить людей улыбнуться по поводу своего же поведения. Удалось это в полной мере. Фильм подобен забавной книге, на каждой новой странице которой находишь очередной комикс…
Доп. информация: Звук не с BDRemux. Синхронизация звука - Dreven.
Сэмпл: http://sendfile.su/1422650
Качество видео: BDRip-AVC
Формат видео: MKV
Видео: 1072x580 (1.85:1), 23.976 fps, AVC, ~2090 Kbps, 0.140 bits/pixel
Аудио 1: Russian, 48.0 KHz, AC3, 2 ch, 192 Kbps
Аудио 2: English, 48.0 KHz, AC3, 2 ch, 192 Kbps
avs4x26x.exe: -L x264_64.exe --pass 2 --bitrate 2090 --preset medium --tune film --ref 10 --merange 32 --bframes 10 --direct auto --b-adapt 2 --trellis 2 --no-fast-pskip --no-dct-decimate --psy-rd 1.00:0.20 --subme 10 --me umh --no-mbtree --vbv-bufsize 62500 --vbv-maxrate 50000 --partitions p8x8,b8x8,i4x4,i8x8 --sar 1:1 --stats
raw [info]: 1072x580p 1:1 @ 24000/1001 fps (cfr)
x264 [info]: using SAR=1/1
x264 [info]: using cpu capabilities: MMX2 SSE2Fast LZCNT
x264 [info]: profile High, level 4.1
x264 [info]: frame I:847 Avg QP:18.92 size: 72071
x264 [info]: frame P:23799 Avg QP:21.68 size: 21676
x264 [info]: frame B:96820 Avg QP:23.54 size: 7706
x264 [info]: consecutive B-frames: 1.4% 1.7% 5.0% 17.0% 12.0% 41.4% 12.5% 4.9% 2.3% 1.0% 0.8%
x264 [info]: mb I I16..4: 8.8% 74.9% 16.3%
x264 [info]: mb P I16..4: 1.1% 10.1% 1.3% P16..4: 47.3% 22.3% 10.9% 0.0% 0.0% skip: 7.1%
x264 [info]: mb B I16..4: 0.0% 0.8% 0.1% B16..8: 43.3% 8.1% 1.7% direct: 5.6% skip:40.4% L0:46.9% L1:46.7% BI: 6.5%
x264 [info]: 8x8 transform intra:80.8% inter:68.5%
x264 [info]: direct mvs spatial:99.3% temporal:0.7%
x264 [info]: coded y,uvDC,uvAC intra: 86.6% 61.8% 36.4% inter: 24.5% 16.5% 3.4%
x264 [info]: i16 v,h,dc,p: 48% 15% 13% 23%
x264 [info]: i8 v,h,dc,ddl,ddr,vr,hd,vl,hu: 13% 8% 8% 9% 13% 13% 12% 11% 12%
x264 [info]: i4 v,h,dc,ddl,ddr,vr,hd,vl,hu: 27% 8% 4% 7% 11% 12% 11% 10% 10%
x264 [info]: i8c dc,h,v,p: 48% 21% 18% 13%
x264 [info]: Weighted P-Frames: Y:14.6% UV:3.6%
x264 [info]: ref P L0: 40.3% 11.2% 16.9% 7.2% 6.7% 4.9% 4.9% 2.5% 2.7% 2.3% 0.4% 0.0%
x264 [info]: ref B L0: 67.8% 11.8% 6.9% 3.8% 3.1% 2.8% 2.3% 1.0% 0.4%
x264 [info]: ref B L1: 93.1% 6.9%
x264 [info]: kb/s:2089.22
x264 [total]: encoded 121466 frames, 7.84 fps, 2089.22 kb/s
General
Unique ID : 137311378134550435164770112006884746536 (0x674D35A0D67DD6E8A8CBBA1C9B90E528)
Complete name : C:\Amazon Women on the Moon.mkv
Format : Matroska
Format version : Version 4 / Version 2
File size : 1.46 GiB
Duration : 1 h 24 min
Overall bit rate : 2 475 kb/s
Encoded date : UTC 2018-05-31 05:54:53
Writing application : mkvmerge v23.0.0 ('The Bride Said No') 64-bit
Writing library : libebml v1.3.6 + libmatroska v1.4.9
Video
ID : 1
Format : AVC
Format/Info : Advanced Video Codec
Format profile : High@L4.1
Format settings : CABAC / 10 Ref Frames
Format settings, CABAC : Yes
Format settings, ReFrames : 10 frames
Codec ID : V_MPEG4/ISO/AVC
Duration : 1 h 24 min
Bit rate : 2 090 kb/s
Width : 1 072 pixels
Height : 580 pixels
Display aspect ratio : 1.85:1
Frame rate mode : Constant
Frame rate : 23.976 (24000/1001) FPS
Color space : YUV
Chroma subsampling : 4:2:0
Bit depth : 8 bits
Scan type : Progressive
Bits/(Pixel*Frame) : 0.140
Stream size : 1.23 GiB (84%)
Writing library : x264 core 152 r2851 ba24899
Encoding settings : cabac=1 / ref=10 / deblock=1:-1:-1 / analyse=0x3:0x113 / me=umh / subme=10 / psy=1 / psy_rd=1.00:0.20 / mixed_ref=1 / me_range=32 / chroma_me=1 / trellis=2 / 8x8dct=1 / cqm=0 / deadzone=21,11 / fast_pskip=0 / chroma_qp_offset=-3 / threads=6 / lookahead_threads=1 / sliced_threads=0 / nr=0 / decimate=0 / interlaced=0 / bluray_compat=0 / constrained_intra=0 / bframes=10 / b_pyramid=2 / b_adapt=2 / b_bias=0 / direct=3 / weightb=1 / open_gop=0 / weightp=2 / keyint=250 / keyint_min=23 / scenecut=40 / intra_refresh=0 / rc_lookahead=40 / rc=2pass / mbtree=0 / bitrate=2090 / ratetol=1.0 / qcomp=0.60 / qpmin=0 / qpmax=69 / qpstep=4 / cplxblur=20.0 / qblur=0.5 / vbv_maxrate=50000 / vbv_bufsize=62500 / nal_hrd=none / filler=0 / ip_ratio=1.40 / pb_ratio=1.30 / aq=1:1.00
Language : English
Default : Yes
Forced : No
Audio #1
ID : 2
Format : AC-3
Format/Info : Audio Coding 3
Codec ID : A_AC3
Duration : 1 h 24 min
Bit rate mode : Constant
Bit rate : 192 kb/s
Channel(s) : 2 channels
Channel positions : Front: L R
Sampling rate : 48.0 kHz
Frame rate : 31.250 FPS (1536 SPF)
Bit depth : 16 bits
Compression mode : Lossy
Stream size : 116 MiB (8%)
Language : Russian
Service kind : Complete Main
Default : Yes
Forced : No
Audio #2
ID : 3
Format : AC-3
Format/Info : Audio Coding 3
Codec ID : A_AC3
Duration : 1 h 24 min
Bit rate mode : Constant
Bit rate : 192 kb/s
Channel(s) : 2 channels
Channel positions : Front: L R
Sampling rate : 48.0 kHz
Frame rate : 31.250 FPS (1536 SPF)
Bit depth : 16 bits
Compression mode : Lossy
Stream size : 116 MiB (8%)
Language : English
Service kind : Complete Main
Default : No
Forced : No
Text
ID : 4
Format : UTF-8
Codec ID : S_TEXT/UTF8
Codec ID/Info : UTF-8 Plain Text
Duration : 1 h 23 min
Bit rate : 83 b/s
Count of elements : 1222
Stream size : 50.6 KiB (0%)
Language : English
Default : No
Forced : No
Menu
00:00:00.000 : en:00:00:00.000
00:15:57.290 : en:00:15:57.290
00:28:44.973 : en:00:28:44.973
00:48:18.854 : en:00:48:18.854
01:02:10.727 : en:01:02:10.727
01:15:38.242 : en:01:15:38.242
01:17:40.447 : en:01:17:40.447
 
Не забывайте говорить Спасибо. Не уходите с раздачи!   
Торрент: Зарегистрирован [31 май 2018, 09:30] Скачать торрент
Скачать торрент
[ Размер 15.05 КБ / Просмотров 3 ]
Статус:
Проверен
 
.torrent скачан: 0 раз
Хэш: 05994e648b25c65a14a5bd42bd9978ef26331e30
Размер: 1.46 ГБ (1 567 551 824 байт)
Стать Автором раздачи
 
 
Раздал: 0 байт
Скачал: 0 байт
Ратио: Inf.
Сообщения: 487468
Зарегистрирован: 17 апр 2014, 13:57


  • Похожие торренты
    Ответы
    Просмотры
    Последнее сообщение

Вернуться в Зарубежные фильмы до 1990 года

Ресурс не предоставляет электронные версии произведений, а занимается лишь коллекционированием и каталогизацией ссылок, присылаемых и публикуемых на форуме нашими читателями. Если вы являетесь правообладателем какого-либо представленного материала и не желаете чтобы ссылка на него находилась в нашем каталоге, свяжитесь с нами и мы незамедлительно удалим её. Файлы для обмена на трекере предоставлены пользователями сайта, и администрация не несёт ответственности за их содержание. Просьба не заливать файлы, защищенные авторскими правами, а также файлы нелегального содержания!
cron