Последнее лето (Евгений Звездаков) [2013, драма, WEB-DLRip]

 
 Статистика раздачи 
Размер: 1.36 ГБ   |  Зарегистрирован: 30 май 2018, 11:50   |   .torrent скачан: 0 раз
Сидеров: 1  [ 0 байт/сек ]     Личеров: 0  [ 0 байт/сек ]  
  

Последнее лето (Евгений Звездаков) [2013, драма, WEB-DLRip]

Сообщение Nakazhu » 30 май 2018, 11:50

Последнее лето
Жанр: драма
Год выпуска: 2013
Продолжительность: 01:20:59
Режиссёр: Евгений Звездаков
В ролях: Матвей Зубалевич, Игорь Огурцов, Надежда Толубеева, Александр Ткачев, Алексей Весёлкин мл., Мария Фомина

Описание: Костя, молодой парень, сын богатых родителей, отрывающийся в ночном клубе, приводит домой соблазнительную девушку… Очнувшись наутро, он понимает, что его поймали «на живца»: квартира обчищена. Костя находит девушку и ребят, «работающих» с ней, и неожиданно просит их… взять его к себе, в банду. Поначалу они относятся к его просьбе, как очередному капризу «мажора», однако ему удаётся завоевать их доверие. Он наводит их на квартиры своих однокурсников (Костя — студент финансовой академии) и вносит ряд «рационализаторских» предложений в работу банды. Несмотря на то, что он здесь самый молодой, к нему постепенно проникаются уважением. Первое время у ребят всё складывается удачно, но однажды они совершают ошибку…

Sample
Качество видео: WEB-DLRip
Формат видео: AVI
Видео: 720x384 (1.85:1), 25 fps, XviD, ~2205 kbps avg, 0.32 bit/pixel
Аудио: 48 kHz, AC3 Dolby Digital, 2/0 (L,R) ch, ~192 kbps
eneral
Complete name : D:\Последнее лето 2013.avi
Format : AVI
Format/Info : Audio Video Interleave
File size : 1.36 GiB
Duration : 1 h 20 min
Overall bit rate : 2 407 kb/s
Writing application : VirtualDubMod 1.5.10.3 | www.virtualdub-fr.org || (build 2550/release)
Writing library : VirtualDubMod build 2550/release
Video
ID : 0
Format : MPEG-4 Visual
Format profile : Advanced Simple@L5
Format settings : BVOP1
Format settings, BVOP : 1
Format settings, QPel : No
Format settings, GMC : No warppoints
Format settings, Matrix : Default (MPEG)
Codec ID : XVID
Codec ID/Hint : XviD
Duration : 1 h 20 min
Bit rate : 2 205 kb/s
Width : 720 pixels
Height : 384 pixels
Display aspect ratio : 1.85:1
Frame rate : 25.000 FPS
Color space : YUV
Chroma subsampling : 4:2:0
Bit depth : 8 bits
Scan type : Progressive
Compression mode : Lossy
Bits/(Pixel*Frame) : 0.319
Stream size : 1.25 GiB (92%)
Writing library : XviD 73
Audio
ID : 1
Format : AC-3
Format/Info : Audio Coding 3
Codec ID : 2000
Duration : 1 h 20 min
Bit rate mode : Constant
Bit rate : 192 kb/s
Channel(s) : 2 channels
Channel positions : Front: L R
Sampling rate : 48.0 kHz
Frame rate : 31.250 FPS (1536 SPF)
Bit depth : 16 bits
Compression mode : Lossy
Stream size : 111 MiB (8%)
Alignment : Split accross interleaves
Interleave, duration : 40 ms (1.00 video frame)
Interleave, preload duratio : 500 ms
Service kind : Complete Main


 
Не забывайте говорить Спасибо. Не уходите с раздачи!   
Торрент: Зарегистрирован [30 май 2018, 11:50] Скачать торрент
Скачать торрент
[ Размер 14.08 КБ / Просмотров 4 ]
Статус:
Проверен
 
.torrent скачан: 0 раз
Хэш: 8f4b1017b8094ec635830b5df0967d75619907b9
Размер: 1.36 ГБ (1 462 116 352 байт)
Стать Автором раздачи
 
 
Раздал: 0 байт
Скачал: 0 байт
Ратио: Inf.
Сообщения: 487468
Зарегистрирован: 17 апр 2014, 13:57


  • Похожие торренты
    Ответы
    Просмотры
    Последнее сообщение

Вернуться в Отечественные фильмы 2011 - 2015 года

Ресурс не предоставляет электронные версии произведений, а занимается лишь коллекционированием и каталогизацией ссылок, присылаемых и публикуемых на форуме нашими читателями. Если вы являетесь правообладателем какого-либо представленного материала и не желаете чтобы ссылка на него находилась в нашем каталоге, свяжитесь с нами и мы незамедлительно удалим её. Файлы для обмена на трекере предоставлены пользователями сайта, и администрация не несёт ответственности за их содержание. Просьба не заливать файлы, защищенные авторскими правами, а также файлы нелегального содержания!
cron