Закрой глаза (2015) WEB-DLRip от Portablius | iTunes

 
 Статистика раздачи 
Размер: 1.37 ГБ   |  Зарегистрирован: 26 май 2018, 15:18   |   .torrent скачан: 0 раз
Сидеров: 1  [ 0 байт/сек ]     Личеров: 0  [ 0 байт/сек ]  
  

Закрой глаза (2015) WEB-DLRip от Portablius | iTunes

Сообщение apple2000 » 26 май 2018, 15:18

Информация о фильме
Название: Закрой глаза / Ночник
Год выхода: 2015
Жанр: Фэнтези, мистика, драма
Режиссер: Ольга Субботина
В ролях: Гоша Бондарев, Софья Хилькова, Светлана Иванова, Анатолий Белый, Юрки Линнанкиви, Анна Хилькевич, Валентина Талызина, Нина Корниенко, Мириам Сехон, Наталия Моргунова

О фильме: Загадочный ночной гость-призрак, рожденный фантазией маленького мальчика, умеет превратить каждую ночь в захватывающее приключение и стать мальчику другом, учителем и проводником в новые миры.


Страна: Россия
Студия: Proline Film
Продолжительность: 01:46:33
Перевод: Не требуется
Субтитры: Нет

Файл
Кодек: XviD
Качество: WEB-DLRip
Видео: 720x304 (2.37:1), 24.000 fps, XviD build 73 ~1446 kbps avg, 0.28 bit/pixel
Звук: 48 kHz, AC3 Dolby Digital, 3/2 (L,C,R,l,r) + LFE ch, ~384 kbps

General
Complete name : Zakroi.glaza.2015.WEB-DLRip.ot.Portablius.avi
Format : AVI
Format/Info : Audio Video Interleave
File size : 1.37 GiB
Duration : 1 h 46 min
Overall bit rate : 1 840 kb/s
Writing application : VirtualDubMod 1.5.10.3 | www.virtualdub-fr.org || (build 2550/release)
Writing library : VirtualDubMod build 2550/release

Video
ID : 0
Format : MPEG-4 Visual
Format profile : Advanced Simple@L5
Format settings, BVOP : 1
Format settings, QPel : No
Format settings, GMC : No warppoints
Format settings, Matrix : Custom
Codec ID : XVID
Codec ID/Hint : XviD
Duration : 1 h 46 min
Bit rate : 1 447 kb/s
Width : 720 pixels
Height : 304 pixels
Display aspect ratio : 2.35:1
Frame rate : 24.000 FPS
Color space : YUV
Chroma subsampling : 4:2:0
Bit depth : 8 bits
Scan type : Progressive
Compression mode : Lossy
Bits/(Pixel*Frame) : 0.275
Stream size : 1.08 GiB (79%)
Writing library : XviD 73

Audio
ID : 1
Format : AC-3
Format/Info : Audio Coding 3
Format settings, Endianness : Big
Codec ID : 2000
Duration : 1 h 46 min
Bit rate mode : Constant
Bit rate : 384 kb/s
Channel(s) : 6 channels
Channel positions : Front: L C R, Side: L R, LFE
Sampling rate : 48.0 kHz
Frame rate : 31.250 FPS (1536 spf)
Bit depth : 16 bits
Compression mode : Lossy
Stream size : 293 MiB (21%)
Alignment : Split accross interleaves
Interleave, duration : 42 ms (1.00 video frame)
Interleave, preload duratio : 500 ms
Service kind : Complete Main

 
Не забывайте говорить Спасибо. Не уходите с раздачи!   
Торрент: Зарегистрирован [26 май 2018, 15:18] Скачать торрент
Скачать торрент
[ Размер 14.59 КБ / Просмотров 5 ]
Статус:
Проверен
 
.torrent скачан: 0 раз
Хэш: e15eb54cbfafc2ae9d503749cb499350aa171b4c
Размер: 1.37 ГБ (1 470 232 576 байт)
Стать Автором раздачи
 
 
Раздал: 0 байт
Скачал: 0 байт
Ратио: Inf.
Сообщения: 42425
Зарегистрирован: 05 окт 2014, 15:23


  • Похожие торренты
    Ответы
    Просмотры
    Последнее сообщение

Вернуться в Отечественные фильмы 2011 - 2015 года

Ресурс не предоставляет электронные версии произведений, а занимается лишь коллекционированием и каталогизацией ссылок, присылаемых и публикуемых на форуме нашими читателями. Если вы являетесь правообладателем какого-либо представленного материала и не желаете чтобы ссылка на него находилась в нашем каталоге, свяжитесь с нами и мы незамедлительно удалим её. Файлы для обмена на трекере предоставлены пользователями сайта, и администрация не несёт ответственности за их содержание. Просьба не заливать файлы, защищенные авторскими правами, а также файлы нелегального содержания!
cron