Super Junior Видеоклипы [2009-2018, Kpop, HDTV 1080i]

 
 Статистика раздачи 
Размер: 5.47 ГБ   |  Зарегистрирован: 25 май 2018, 20:40   |   .torrent скачан: 0 раз
Сидеров: 1  [ 0 байт/сек ]     Личеров: 0  [ 0 байт/сек ]  
  

Super Junior Видеоклипы [2009-2018, Kpop, HDTV 1080i]

Сообщение Nakazhu » 25 май 2018, 20:40

Super Junior Видеоклипы
Жанр: Kpop
Год выпуска
: 2009-2018
Описание: Легендарные Super Junior в этом году отмечают 10-ую годовщину группы. По этой весомой причине стоит продолжить предыдущие раздачи на трекере, их Видеографий. В данной теме собраны недостающие и последние видео коллектива, а так же подгрупп и соло-проектов.
Super Junior - пример отличных синглов в жанре Kpop.
Доп. информация: Все видеоклипы от MelOn, Naver, M-ON!, SSTV
ВНИМАНИЕ! 25/05/18 добавлены 5 клипов: 'Sorry, Sorry', `It`s You` (видео с канала Mnet Japan), `Evanesce`(видео от MelOn), `Black Suit` (видео от Bugs!) и `Lo Siento` (видео MasterRip)
Продолжительность: 00:04:11
Контейнер: MPEG-TS
Видео: 1440 x 1080 (1.778) at 29.970 fps AVC at 8129 Кбит/сек
Аудио: 2 канала, 48,0 КГц AAC at 142 Кбит/сек
Код: Выделить всё
Формат                                   : MPEG-TS
Размер файла                             : 249 Мбайт
Продолжительность                        : 4 м. 11 с.
Режим общего битрейта                    : Переменный
Общий поток                              : 8271 Кбит/сек
Название сети                            : |№«Сщ!
Оригинальное название сети               : Astra 8
Frequency                                : 12673000000
OrbitalPosition                          : 124.0E
Видео
Идентификатор                            : 4100 (0x1004)
Идентификатор меню                       : 33426 (0x8292)
Формат                                   : AVC
Формат/Информация                        : Advanced Video Codec
Профиль формата                          : Main@L4
Параметр CABAC формата                   : Да
Параметр ReFrames формата                : 4 кадра
Идентификатор кодека                     : 27
Продолжительность                        : 4 м. 11 с.
Вид битрейта                             : Переменный
Максимальный битрейт                     : 20,0 Мбит/сек
Ширина                                   : 1440 пикселей
Высота                                   : 1080 пикселей
Соотношение сторон                       : 16:9
Частота кадров                           : 29,970 (30000/1001) кадров/сек
Стандарт вещания                         : Component
Цветовое пространство                    : YUV
Субдискретизация насыщенности            : 4:2:0
Битовая глубина                          : 8 бит
Тип развёртки                            : Чересстрочная
Метод сохранения типа развёртки          : Раздельные поля
Порядок развёртки                        : Верхнее поле первое
Цветовой диапазон                        : Limited
Основные цвета                           : BT.709
Характеристики трансфера                 : BT.709
Коэффициенты матрицы                     : BT.709
Аудио
Идентификатор                            : 4164 (0x1044)
Идентификатор меню                       : 33426 (0x8292)
Формат                                   : AAC
Формат/Информация                        : Advanced Audio Codec
Версия формата                           : Version 2
Профиль формата                          : LC
Режим смешивания                         : ADTS
Идентификатор кодека                     : 15
Продолжительность                        : 4 м. 11 с.
Вид битрейта                             : Переменный
Каналы                                   : 2 канала
Расположение каналов                     : Front: L R
Частота                                  : 48,0 КГц
Частота кадров                           : 46,875 кадров/сек (1024 spf)
Метод сжатия                             : С потерями
Задержка видео                           : -8 мс.
Меню
Идентификатор                            : 1028 (0x404)
Идентификатор меню                       : 33426 (0x8292)
Продолжительность                        : 4 м. 11 с.
Список                                   : 4100 (0x1004) (AVC) / 4164 (0x1044) (AAC)
Название сервиса                         : Mnet!!HD
Тип сервиса                              : digital television
Продолжительность: 00:04:07
Контейнер: MPEG-TS
Видео: 1440 x 1080 (1.778) at 29.970 fps AVC at 8325 Кбит/сек
Аудио: 2 канала, 48,0 КГц AAC at 142 Кбит/сек
Код: Выделить всё
Формат                                   : MPEG-TS
Размер файла                             : 253 Мбайт
Продолжительность                        : 4 м. 7 с.
Режим общего битрейта                    : Переменный
Общий поток                              : 8467 Кбит/сек
Название сети                            : |№«Сщ!‰HDЉµщУ№
Оригинальное название сети               : Astra 8
Видео
Идентификатор                            : 4099 (0x1003)
Идентификатор меню                       : 33426 (0x8292)
Формат                                   : AVC
Формат/Информация                        : Advanced Video Codec
Профиль формата                          : Main@L4
Параметр CABAC формата                   : Да
Параметр ReFrames формата                : 4 кадра
Идентификатор кодека                     : 27
Продолжительность                        : 4 м. 9 с.
Вид битрейта                             : Переменный
Максимальный битрейт                     : 20,0 Мбит/сек
Ширина                                   : 1440 пикселей
Высота                                   : 1080 пикселей
Соотношение сторон                       : 16:9
Частота кадров                           : 29,970 (30000/1001) кадров/сек
Стандарт вещания                         : Component
Цветовое пространство                    : YUV
Субдискретизация насыщенности            : 4:2:0
Битовая глубина                          : 8 бит
Тип развёртки                            : Чересстрочная
Метод сохранения типа развёртки          : Раздельные поля
Порядок развёртки                        : Верхнее поле первое
Цветовой диапазон                        : Limited
Основные цвета                           : BT.709
Характеристики трансфера                 : BT.709
Коэффициенты матрицы                     : BT.709
Аудио
Идентификатор                            : 4163 (0x1043)
Идентификатор меню                       : 33426 (0x8292)
Формат                                   : AAC
Формат/Информация                        : Advanced Audio Codec
Версия формата                           : Version 2
Профиль формата                          : LC
Режим смешивания                         : ADTS
Идентификатор кодека                     : 15
Продолжительность                        : 4 м. 9 с.
Вид битрейта                             : Переменный
Каналы                                   : 2 канала
Расположение каналов                     : Front: L R
Частота                                  : 48,0 КГц
Частота кадров                           : 46,875 кадров/сек (1024 spf)
Метод сжатия                             : С потерями
Задержка видео                           : -696 мс.
Меню
Идентификатор                            : 1027 (0x403)
Идентификатор меню                       : 33426 (0x8292)
Продолжительность                        : 4 м. 7 с.
Список                                   : 4099 (0x1003) (AVC) / 4163 (0x1043) (AAC)
Название сервиса                         : Mnet!!HD
Тип сервиса                              : digital television
Продолжительность: 00:03:23
Контейнер: MPEG-TS
Видео: 1440 x 1080 (1.778) at 29.970 fps AVC at 11,2 Мбит/сек
Аудио: 2 канала, 48,0 КГц AAC at 144 Кбит/сек
Код: Выделить всё
Формат                                   : MPEG-TS
Размер файла                             : 291 Мбайт
Продолжительность                        : 3 м. 23 с.
Режим общего битрейта                    : Переменный
Общий поток                              : 11,9 Мбит/сек
Видео
Идентификатор                            : 4099 (0x1003)
Формат                                   : AVC
Формат/Информация                        : Advanced Video Codec
Профиль формата                          : Main@L4.0
Параметр CABAC формата                   : Да
Параметр ReFrames формата                : 4 кадра
Идентификатор кодека                     : 27
Продолжительность                        : 3 м. 24 с.
Вид битрейта                             : Переменный
Битрейт                                  : 11,2 Мбит/сек
Максимальный битрейт                     : 20,0 Мбит/сек
Ширина                                   : 1440 пикселей
Высота                                   : 1080 пикселей
Соотношение сторон                       : 16:9
Частота кадров                           : 29,970 кадров/сек
Стандарт вещания                         : Component
Цветовое пространство                    : YUV
Субдискретизация насыщенности            : 4:2:0
Битовая глубина                          : 8 бит
Тип развёртки                            : Чересстрочная
Порядок развёртки                        : Верхнее поле первое
Бит/(Пиксели*Кадры)                      : 0.240
Размер потока                            : 272 Мбайт (94%)
Основные цвета                           : BT.709-5, BT.1361, IEC 61966-2-4, SMPTE RP177
Характеристики трансфера                 : BT.709-5, BT.1361
Коэффициенты матрицы                     : BT.709-5, BT.1361, IEC 61966-2-4 709, SMPTE RP177
Аудио
Идентификатор                            : 4163 (0x1043)
Идентификатор меню                       : 33411 (0x8283)
Формат                                   : AAC
Формат/Информация                        : Advanced Audio Codec
Версия формата                           : Version 2
Профиль формата                          : LC
Режим смешивания                         : ADTS
Идентификатор кодека                     : 15
Продолжительность                        : 3 м. 24 с.
Вид битрейта                             : Переменный
Битрейт                                  : 144 Кбит/сек
Минимальный битрейт                      : 123 Кбит/сек
Максимальный битрейт                     : 187 Кбит/сек
Каналы                                   : 2 канала
Расположение каналов                     : Front: L R
Частота                                  : 48,0 КГц
Метод сжатия                             : С потерями
Задержка видео                           : -666 мс.
Размер потока                            : 3,51 Мбайт (1%)
Продолжительность: 00:03:24
Контейнер: MPEG-TS
Видео: 1440 x 1080 (1.778) at 29.970 fps AVC at 13,4 Мбит/сек
Аудио: 2 канала, 48,0 КГц AAC at 144 Кбит/сек
Код: Выделить всё
Формат                                   : MPEG-TS
Размер файла                             : 348 Мбайт
Продолжительность                        : 3 м. 24 с.
Режим общего битрейта                    : Переменный
Общий поток                              : 14,2 Мбит/сек
Видео
Идентификатор                            : 4099 (0x1003)
Идентификатор меню                       : 33411 (0x8283)
Формат                                   : AVC
Формат/Информация                        : Advanced Video Codec
Профиль формата                          : Main@L4.0
Параметр CABAC формата                   : Да
Параметр ReFrames формата                : 4 кадра
Идентификатор кодека                     : 27
Продолжительность                        : 3 м. 24 с.
Вид битрейта                             : Переменный
Битрейт                                  : 13,4 Мбит/сек
Максимальный битрейт                     : 20,0 Мбит/сек
Ширина                                   : 1440 пикселей
Высота                                   : 1080 пикселей
Соотношение сторон                       : 16:9
Частота кадров                           : 29,970 кадров/сек
Стандарт вещания                         : Component
Цветовое пространство                    : YUV
Субдискретизация насыщенности            : 4:2:0
Битовая глубина                          : 8 бит
Тип развёртки                            : Чересстрочная
Порядок развёртки                        : Верхнее поле первое
Бит/(Пиксели*Кадры)                      : 0.287
Размер потока                            : 327 Мбайт (94%)
Основные цвета                           : BT.709-5, BT.1361, IEC 61966-2-4, SMPTE RP177
Характеристики трансфера                 : BT.709-5, BT.1361
Коэффициенты матрицы                     : BT.709-5, BT.1361, IEC 61966-2-4 709, SMPTE RP177
Аудио
Идентификатор                            : 4163 (0x1043)
Идентификатор меню                       : 33411 (0x8283)
Формат                                   : AAC
Формат/Информация                        : Advanced Audio Codec
Версия формата                           : Version 2
Профиль формата                          : LC
Режим смешивания                         : ADTS
Идентификатор кодека                     : 15
Продолжительность                        : 3 м. 25 с.
Вид битрейта                             : Переменный
Битрейт                                  : 144 Кбит/сек
Минимальный битрейт                      : 120 Кбит/сек
Максимальный битрейт                     : 212 Кбит/сек
Каналы                                   : 2 канала
Расположение каналов                     : Front: L R
Частота                                  : 48,0 КГц
Метод сжатия                             : С потерями
Задержка видео                           : -722 мс.
Размер потока                            : 3,52 Мбайт (1%)
Продолжительность: 00:03:32
Контейнер: MPEG-TS
Видео: 1440 x 1080 (1.778) at 29.970 fps AVC at 8971 Кбит/сек
Аудио: 2 канала, 44,1 КГц AAC at 144 Кбит/сек
Код: Выделить всё
Формат                                   : MPEG-TS
Размер файла                             : 243 Мбайт
Продолжительность                        : 3 м. 32 с.
Режим общего битрейта                    : Переменный
Общий поток                              : 9590 Кбит/сек
Видео
Идентификатор                            : 4099 (0x1003)
Идентификатор меню                       : 33409 (0x8281)
Формат                                   : AVC
Формат/Информация                        : Advanced Video Codec
Профиль формата                          : Main@L4.0
Параметр CABAC формата                   : Да
Параметр ReFrames формата                : 4 кадра
Идентификатор кодека                     : 27
Продолжительность                        : 3 м. 32 с.
Вид битрейта                             : Переменный
Битрейт                                  : 8971 Кбит/сек
Максимальный битрейт                     : 20,0 Мбит/сек
Ширина                                   : 1440 пикселей
Высота                                   : 1080 пикселей
Соотношение сторон                       : 16:9
Частота кадров                           : 29,970 кадров/сек
Стандарт вещания                         : Component
Цветовое пространство                    : YUV
Субдискретизация насыщенности            : 4:2:0
Битовая глубина                          : 8 бит
Тип развёртки                            : Чересстрочная
Порядок развёртки                        : Верхнее поле первое
Бит/(Пиксели*Кадры)                      : 0.192
Размер потока                            : 227 Мбайт (94%)
Основные цвета                           : BT.709-5, BT.1361, IEC 61966-2-4, SMPTE RP177
Характеристики трансфера                 : BT.709-5, BT.1361
Коэффициенты матрицы                     : BT.709-5, BT.1361, IEC 61966-2-4 709, SMPTE RP177
Аудио
Идентификатор                            : 4163 (0x1043)
Идентификатор меню                       : 33409 (0x8281)
Формат                                   : AAC
Формат/Информация                        : Advanced Audio Codec
Версия формата                           : Version 2
Профиль формата                          : LC
Режим смешивания                         : ADTS
Идентификатор кодека                     : 15
Продолжительность                        : 3 м. 32 с.
Вид битрейта                             : Переменный
Битрейт                                  : 144 Кбит/сек
Минимальный битрейт                      : 111 Кбит/сек
Максимальный битрейт                     : 232 Кбит/сек
Каналы                                   : 2 канала
Расположение каналов                     : Front: L R
Частота                                  : 48,0 КГц
Метод сжатия                             : С потерями
Задержка видео                           : -499 мс.
Размер потока                            : 3,65 Мбайт (2%)
Продолжительность: 00:06:20
Контейнер: MP4
Видео: 1920 x 1080 (1.778) at 24.000 fps AVC at 5275 Кбит/сек
Аудио: 2 канала, 44,1 КГц AAC at 192 Кбит/сек
Код: Выделить всё
Формат                                   : MPEG-4
Профиль формата                          : Base Media
Идентификатор кодека                     : isom
Размер файла                             : 239 Мбайт
Продолжительность                        : 6 м. 20 с.
Режим общего битрейта                    : Переменный
Общий поток                              : 5275 Кбит/сек
Программа кодирования                    : Lavf52.62.0
Видео
Идентификатор                            : 1
Формат                                   : AVC
Формат/Информация                        : Advanced Video Codec
Профиль формата                          : High@L4.0
Параметр CABAC формата                   : Да
Параметр ReFrames формата                : 3 кадра
Идентификатор кодека                     : avc1
Идентификатор кодека/Информация          : Advanced Video Coding
Продолжительность                        : 6 м. 20 с.
Битрейт                                  : 5076 Кбит/сек
Ширина                                   : 1920 пикселей
Высота                                   : 1080 пикселей
Соотношение сторон                       : 16:9
Режим частоты кадров                     : Переменный
Частота кадров                           : 24,000 кадра/сек
Минимальная частота кадров               : 23,810 кадра/сек
Максимальная частота кадров              : 24,390 кадра/сек
Цветовое пространство                    : YUV
Субдискретизация насыщенности            : 4:2:0
Битовая глубина                          : 8 бит
Тип развёртки                            : Прогрессивная
Бит/(Пиксели*Кадры)                      : 0.102
Размер потока                            : 230 Мбайт (96%)
Аудио
Идентификатор                            : 2
Формат                                   : AAC
Формат/Информация                        : Advanced Audio Codec
Профиль формата                          : LC
Идентификатор кодека                     : 40
Продолжительность                        : 6 м. 20 с.
Вид битрейта                             : Переменный
Битрейт                                  : 192 Кбит/сек
Каналы                                   : 2 канала
Расположение каналов                     : Front: L R
Частота                                  : 44,1 КГц
Метод сжатия                             : С потерями
Размер потока                            : 8,70 Мбайт (4%)
Продолжительность: 00:04:27
Контейнер: MP4
Видео: 1920 x 1080 (1.778) at 23.976 fps AVC at 10,0 Мбит/сек
Аудио: 2 канала, 48,0 КГц AAC at 317 Кбит/сек
Код: Выделить всё
Формат                                   : MPEG-4
Профиль формата                          : Base Media / Version 2
Идентификатор кодека                     : mp42
Размер файла                             : 322 Мбайт
Продолжительность                        : 4 м. 27 с.
Режим общего битрейта                    : Переменный
Общий поток                              : 10,1 Мбит/сек
Программа кодирования                    : TMPGEnc Video Mastering Works 5 Version. 5.4.0.100
Видео
Идентификатор                            : 2
Формат                                   : AVC
Формат/Информация                        : Advanced Video Codec
Профиль формата                          : Baseline@L4.1
Параметр CABAC формата                   : Нет
Параметр ReFrames формата                : 4 кадра
Идентификатор кодека                     : avc1
Идентификатор кодека/Информация          : Advanced Video Coding
Продолжительность                        : 4 м. 27 с.
Вид битрейта                             : Постоянный
Битрейт                                  : 10000 Кбит/сек
Ширина                                   : 1920 пикселей
Высота                                   : 1080 пикселей
Соотношение сторон                       : 16:9
Режим частоты кадров                     : Постоянный
Частота кадров                           : 23,976 кадра/сек
Стандарт вещания                         : Component
Цветовое пространство                    : YUV
Субдискретизация насыщенности            : 4:2:0
Битовая глубина                          : 8 бит
Тип развёртки                            : Прогрессивная
Бит/(Пиксели*Кадры)                      : 0.201
Размер потока                            : 312 Мбайт (97%)
Библиотека кодирования                   : x264 core 125
Настройки программы                      : cabac=0 / ref=4 / deblock=1:0:0 / analyse=0x1:0x111 / me=dia / subme=2 / psy=1 / psy_rd=1.00:0.00 / mixed_ref=0 / me_range=16 / chroma_me=1 / trellis=0 / 8x8dct=0 / cqm=0 / deadzone=21,11 / fast_pskip=1 / chroma_qp_offset=0 / threads=6 / lookahead_threads=1 / sliced_threads=0 / slices=1 / nr=0 / decimate=1 / interlaced=0 / bluray_compat=0 / constrained_intra=0 / bframes=0 / weightp=0 / keyint=300 / keyint_min=23 / scenecut=40 / intra_refresh=0 / rc_lookahead=10 / rc=cbr / mbtree=1 / bitrate=10000 / ratetol=1.0 / qcomp=0.60 / qpmin=0 / qpmax=69 / qpstep=4 / vbv_maxrate=10000 / vbv_bufsize=10000 / nal_hrd=cbr / ip_ratio=1.40 / aq=1:1.00
Основные цвета                           : BT.709-5, BT.1361, IEC 61966-2-4, SMPTE RP177
Характеристики трансфера                 : BT.709-5, BT.1361
Коэффициенты матрицы                     : BT.709-5, BT.1361, IEC 61966-2-4 709, SMPTE RP177
Аудио
Идентификатор                            : 1
Формат                                   : AAC
Формат/Информация                        : Advanced Audio Codec
Профиль формата                          : LC
Идентификатор кодека                     : 40
Продолжительность                        : 4 м. 27 с.
Вид битрейта                             : Переменный
Битрейт                                  : 317 Кбит/сек
Максимальный битрейт                     : 576 Кбит/сек
Каналы                                   : 2 канала
Расположение каналов                     : Front: L R
Частота                                  : 48,0 КГц
Метод сжатия                             : С потерями
Размер потока                            : 10,1 Мбайт (3%)
Продолжительность: 00:04:28
Контейнер: MPEG4
Видео: 1920 x 1080 (1.778) at 23.976 fps AVC at 10000 Кбит/сек
Аудио: 2 канала, 48,0 КГц AAC at 317 Кбит/сек
Код: Выделить всё
Формат                                   : MPEG-4
Профиль формата                          : Base Media / Version 2
Идентификатор кодека                     : mp42 (mp42/isom/avc1)
Размер файла                             : 324 Мбайт
Продолжительность                        : 4 м. 28 с.
Режим общего битрейта                    : Переменный
Общий поток                              : 10,1 Мбит/сек
Программа кодирования                    : TMPGEnc Video Mastering Works 5 Version. 5.4.0.100
Видео
Идентификатор                            : 2
Формат                                   : AVC
Формат/Информация                        : Advanced Video Codec
Профиль формата                          : Baseline@L4.1
Параметр CABAC формата                   : Нет
Параметр ReFrames формата                : 4 кадра
Идентификатор кодека                     : avc1
Идентификатор кодека/Информация          : Advanced Video Coding
Продолжительность                        : 4 м. 28 с.
Вид битрейта                             : Постоянный
Битрейт                                  : 10000 Кбит/сек
Ширина                                   : 1920 пикселей
Высота                                   : 1080 пикселей
Соотношение сторон                       : 16:9
Режим частоты кадров                     : Постоянный
Частота кадров                           : 23,976 (24000/1001) кадра/сек
Стандарт вещания                         : Component
Цветовое пространство                    : YUV
Субдискретизация насыщенности            : 4:2:0
Битовая глубина                          : 8 бит
Тип развёртки                            : Прогрессивная
Бит/(Пиксели*Кадры)                      : 0.201
Размер потока                            : 314 Мбайт (97%)
Библиотека кодирования                   : x264 core 125
Настройки программы                      : cabac=0 / ref=4 / deblock=1:0:0 / analyse=0x1:0x111 / me=dia / subme=2 / psy=1 / psy_rd=1.00:0.00 / mixed_ref=0 / me_range=16 / chroma_me=1 / trellis=0 / 8x8dct=0 / cqm=0 / deadzone=21,11 / fast_pskip=1 / chroma_qp_offset=0 / threads=6 / lookahead_threads=1 / sliced_threads=0 / slices=1 / nr=0 / decimate=1 / interlaced=0 / bluray_compat=0 / constrained_intra=0 / bframes=0 / weightp=0 / keyint=300 / keyint_min=23 / scenecut=40 / intra_refresh=0 / rc_lookahead=10 / rc=cbr / mbtree=1 / bitrate=10000 / ratetol=1.0 / qcomp=0.60 / qpmin=0 / qpmax=69 / qpstep=4 / vbv_maxrate=10000 / vbv_bufsize=10000 / nal_hrd=cbr / ip_ratio=1.40 / aq=1:1.00
Цветовой диапазон                        : Limited
Основные цвета                           : BT.709
Характеристики трансфера                 : BT.709
Коэффициенты матрицы                     : BT.709
Аудио
Идентификатор                            : 1
Формат                                   : AAC
Формат/Информация                        : Advanced Audio Codec
Профиль формата                          : LC
Идентификатор кодека                     : 40
Продолжительность                        : 4 м. 28 с.
Вид битрейта                             : Переменный
Битрейт                                  : 317 Кбит/сек
Максимальный битрейт                     : 576 Кбит/сек
Каналы                                   : 2 канала
Расположение каналов                     : Front: L R
Частота                                  : 48,0 КГц
Частота кадров                           : 46,875 кадров/сек (1024 spf)
Метод сжатия                             : С потерями
Размер потока                            : 10,2 Мбайт (3%)
Продолжительность: 00:04:45
Контейнер: MP4
Видео: 1920 x 1080 (1.778) at 23.976 fps AVC at 10,0 Мбит/сек
Аудио: 2 канала, 48,0 КГц AAC at 317 Кбит/сек
Код: Выделить всё
Формат                                   : MPEG-4
Профиль формата                          : Base Media / Version 2
Идентификатор кодека                     : mp42
Размер файла                             : 343 Мбайт
Продолжительность                        : 4 м. 45 с.
Режим общего битрейта                    : Переменный
Общий поток                              : 10,1 Мбит/сек
Программа кодирования                    : TMPGEnc Video Mastering Works 5 Version. 5.4.0.100
Видео
Идентификатор                            : 2
Формат                                   : AVC
Формат/Информация                        : Advanced Video Codec
Профиль формата                          : Baseline@L4.1
Параметр CABAC формата                   : Нет
Параметр ReFrames формата                : 4 кадра
Идентификатор кодека                     : avc1
Идентификатор кодека/Информация          : Advanced Video Coding
Продолжительность                        : 4 м. 45 с.
Вид битрейта                             : Постоянный
Битрейт                                  : 10000 Кбит/сек
Ширина                                   : 1920 пикселей
Высота                                   : 1080 пикселей
Соотношение сторон                       : 16:9
Режим частоты кадров                     : Постоянный
Частота кадров                           : 23,976 кадра/сек
Стандарт вещания                         : Component
Цветовое пространство                    : YUV
Субдискретизация насыщенности            : 4:2:0
Битовая глубина                          : 8 бит
Тип развёртки                            : Прогрессивная
Бит/(Пиксели*Кадры)                      : 0.201
Размер потока                            : 332 Мбайт (97%)
Библиотека кодирования                   : x264 core 125
Настройки программы                      : cabac=0 / ref=4 / deblock=1:0:0 / analyse=0x1:0x111 / me=dia / subme=2 / psy=1 / psy_rd=1.00:0.00 / mixed_ref=0 / me_range=16 / chroma_me=1 / trellis=0 / 8x8dct=0 / cqm=0 / deadzone=21,11 / fast_pskip=1 / chroma_qp_offset=0 / threads=6 / lookahead_threads=1 / sliced_threads=0 / slices=1 / nr=0 / decimate=1 / interlaced=0 / bluray_compat=0 / constrained_intra=0 / bframes=0 / weightp=0 / keyint=300 / keyint_min=23 / scenecut=40 / intra_refresh=0 / rc_lookahead=10 / rc=cbr / mbtree=1 / bitrate=10000 / ratetol=1.0 / qcomp=0.60 / qpmin=0 / qpmax=69 / qpstep=4 / vbv_maxrate=10000 / vbv_bufsize=10000 / nal_hrd=cbr / ip_ratio=1.40 / aq=1:1.00
Основные цвета                           : BT.709-5, BT.1361, IEC 61966-2-4, SMPTE RP177
Характеристики трансфера                 : BT.709-5, BT.1361
Коэффициенты матрицы                     : BT.709-5, BT.1361, IEC 61966-2-4 709, SMPTE RP177
Аудио
Идентификатор                            : 1
Формат                                   : AAC
Формат/Информация                        : Advanced Audio Codec
Профиль формата                          : LC
Идентификатор кодека                     : 40
Продолжительность                        : 4 м. 45 с.
Вид битрейта                             : Переменный
Битрейт                                  : 317 Кбит/сек
Максимальный битрейт                     : 576 Кбит/сек
Каналы                                   : 2 канала
Расположение каналов                     : Front: L R
Частота                                  : 48,0 КГц
Метод сжатия                             : С потерями
Размер потока                            : 10,8 Мбайт (3%)
Продолжительность: 00:04:04
Контейнер: MPEG-TS
Видео: 1440 x 1080 (1.778) at 29.970 fps AVC at 10,8 Мбит/сек
Аудио: 2 канала, 48,0 КГц AAC at 144 Кбит/сек
Код: Выделить всё
Формат                                   : MPEG-TS
Размер файла                             : 337 Мбайт
Продолжительность                        : 4 м. 4 с.
Режим общего битрейта                    : Переменный
Общий поток                              : 11,5 Мбит/сек
Видео
Идентификатор                            : 4097 (0x1001)
Идентификатор меню                       : 129 (0x81)
Формат                                   : AVC
Формат/Информация                        : Advanced Video Codec
Профиль формата                          : High@L4.0
Параметр CABAC формата                   : Да
Параметр ReFrames формата                : 4 кадра
Идентификатор кодека                     : 27
Продолжительность                        : 4 м. 6 с.
Вид битрейта                             : Переменный
Битрейт                                  : 10,8 Мбит/сек
Максимальный битрейт                     : 20,0 Мбит/сек
Ширина                                   : 1440 пикселей
Высота                                   : 1080 пикселей
Соотношение сторон                       : 16:9
Частота кадров                           : 29,970 кадров/сек
Стандарт вещания                         : Component
Цветовое пространство                    : YUV
Субдискретизация насыщенности            : 4:2:0
Битовая глубина                          : 8 бит
Тип развёртки                            : Чересстрочная
Порядок развёртки                        : Верхнее поле первое
Бит/(Пиксели*Кадры)                      : 0.232
Размер потока                            : 317 Мбайт (94%)
Основные цвета                           : BT.709-5, BT.1361, IEC 61966-2-4, SMPTE RP177
Характеристики трансфера                 : BT.709-5, BT.1361
Коэффициенты матрицы                     : BT.709-5, BT.1361, IEC 61966-2-4 709, SMPTE RP177
Аудио
Идентификатор                            : 4161 (0x1041)
Идентификатор меню                       : 129 (0x81)
Формат                                   : AAC
Формат/Информация                        : Advanced Audio Codec
Версия формата                           : Version 2
Профиль формата                          : LC
Режим смешивания                         : ADTS
Идентификатор кодека                     : 15
Продолжительность                        : 4 м. 6 с.
Вид битрейта                             : Переменный
Битрейт                                  : 144 Кбит/сек
Минимальный битрейт                      : 124 Кбит/сек
Максимальный битрейт                     : 195 Кбит/сек
Каналы                                   : 2 канала
Расположение каналов                     : Front: L R
Частота                                  : 48,0 КГц
Метод сжатия                             : С потерями
Задержка видео                           : -227 мс.
Размер потока                            : 4,23 Мбайт (1%)
Продолжительность: 00:03:41
Контейнер: MP4
Видео: 1920 x 1080 (1.778) at 23.976 fps AVC at 10,0 Мбит/сек
Аудио: 2 канала, 48,10 КГц AAC at 317 Кбит/сек
Код: Выделить всё
Формат                                   : MPEG-4
Профиль формата                          : Base Media / Version 2
Идентификатор кодека                     : mp42
Размер файла                             : 265 Мбайт
Продолжительность                        : 3 м. 41 с.
Режим общего битрейта                    : Переменный
Общий поток                              : 10,0 Мбит/сек
Программа кодирования                    : TMPGEnc Video Mastering Works 5 Version. 5.4.0.100
Видео
Идентификатор                            : 2
Формат                                   : AVC
Формат/Информация                        : Advanced Video Codec
Профиль формата                          : Baseline@L4.1
Параметр CABAC формата                   : Нет
Параметр ReFrames формата                : 4 кадра
Идентификатор кодека                     : avc1
Идентификатор кодека/Информация          : Advanced Video Coding
Продолжительность                        : 3 м. 41 с.
Вид битрейта                             : Постоянный
Битрейт                                  : 10000 Кбит/сек
Ширина                                   : 1920 пикселей
Высота                                   : 1080 пикселей
Соотношение сторон                       : 16:9
Режим частоты кадров                     : Постоянный
Частота кадров                           : 23,976 кадра/сек
Стандарт вещания                         : Component
Цветовое пространство                    : YUV
Субдискретизация насыщенности            : 4:2:0
Битовая глубина                          : 8 бит
Тип развёртки                            : Прогрессивная
Бит/(Пиксели*Кадры)                      : 0.201
Размер потока                            : 257 Мбайт (97%)
Библиотека кодирования                   : x264 core 125
Настройки программы                      : cabac=0 / ref=4 / deblock=1:0:0 / analyse=0x1:0x111 / me=dia / subme=2 / psy=1 / psy_rd=1.00:0.00 / mixed_ref=0 / me_range=16 / chroma_me=1 / trellis=0 / 8x8dct=0 / cqm=0 / deadzone=21,11 / fast_pskip=1 / chroma_qp_offset=0 / threads=6 / lookahead_threads=1 / sliced_threads=0 / slices=1 / nr=0 / decimate=1 / interlaced=0 / bluray_compat=0 / constrained_intra=0 / bframes=0 / weightp=0 / keyint=300 / keyint_min=23 / scenecut=40 / intra_refresh=0 / rc_lookahead=10 / rc=cbr / mbtree=1 / bitrate=10000 / ratetol=1.0 / qcomp=0.60 / qpmin=0 / qpmax=69 / qpstep=4 / vbv_maxrate=10000 / vbv_bufsize=10000 / nal_hrd=cbr / ip_ratio=1.40 / aq=1:1.00
Основные цвета                           : BT.709-5, BT.1361, IEC 61966-2-4, SMPTE RP177
Характеристики трансфера                 : BT.709-5, BT.1361
Коэффициенты матрицы                     : BT.709-5, BT.1361, IEC 61966-2-4 709, SMPTE RP177
Аудио
Идентификатор                            : 1
Формат                                   : AAC
Формат/Информация                        : Advanced Audio Codec
Профиль формата                          : LC
Идентификатор кодека                     : 40
Продолжительность                        : 3 м. 41 с.
Вид битрейта                             : Переменный
Битрейт                                  : 317 Кбит/сек
Максимальный битрейт                     : 576 Кбит/сек
Каналы                                   : 2 канала
Расположение каналов                     : Front: L R
Частота                                  : 48,0 КГц
Метод сжатия                             : С потерями
Размер потока                            : 8,39 Мбайт (3%)
Продолжительность: 00:04:09
Контейнер: MPEG-TS
Видео: 1920 x 1080 (1.778) at 29.970 fps MPEG Video at 17,0 Мбит/сек
Аудио: 2 канала, 48,0 КГц AAC at 220 Кбит/сек
Код: Выделить всё
Формат                                   : MPEG-TS
Размер файла                             : 540 Мбайт
Продолжительность                        : 4 м. 9 с.
Режим общего битрейта                    : Переменный
Общий поток                              : 18,1 Мбит/сек
Видео
Идентификатор                            : 17 (0x11)
Идентификатор меню                       : 1 (0x1)
Формат                                   : MPEG Video
Версия формата                           : Version 2
Профиль формата                          : Main@High
Параметр BVOP формата                    : Да
Параметр матрицы формата                 : По умолчанию
Идентификатор кодека                     : 2
Продолжительность                        : 4 м. 9 с.
Битрейт                                  : 17,0 Мбит/сек
Максимальный битрейт                     : 17,4 Мбит/сек
Ширина                                   : 1920 пикселей
Высота                                   : 1080 пикселей
Соотношение сторон                       : 16:9
Частота кадров                           : 29,970 кадров/сек
Цветовое пространство                    : YUV
Субдискретизация насыщенности            : 4:2:0
Битовая глубина                          : 8 бит
Тип развёртки                            : Чересстрочная
Порядок развёртки                        : Верхнее поле первое
Метод сжатия                             : С потерями
Бит/(Пиксели*Кадры)                      : 0.274
Размер потока                            : 506 Мбайт (94%)
Аудио
Идентификатор                            : 20 (0x14)
Идентификатор меню                       : 1 (0x1)
Формат                                   : AAC
Формат/Информация                        : Advanced Audio Codec
Версия формата                           : Version 2
Профиль формата                          : LC
Режим смешивания                         : ADTS
Идентификатор кодека                     : 15
Продолжительность                        : 4 м. 9 с.
Вид битрейта                             : Переменный
Битрейт                                  : 220 Кбит/сек
Минимальный битрейт                      : 192 Кбит/сек
Максимальный битрейт                     : 258 Кбит/сек
Каналы                                   : 2 канала
Расположение каналов                     : Front: L R
Частота                                  : 48,0 КГц
Метод сжатия                             : С потерями
Задержка видео                           : -229 мс.
Размер потока                            : 6,55 Мбайт (1%)
Продолжительность: 00:04:29
Контейнер: MP4
Видео: 1920 x 1080 (1.778) at 23.976 fps AVC at 10,0 Мбит/сек
Аудио: 2 канала, 48,0 КГц AAC at 317 Кбит/сек
Код: Выделить всё
Формат                                   : MPEG-4
Профиль формата                          : Base Media / Version 2
Идентификатор кодека                     : mp42
Размер файла                             : 328 Мбайт
Продолжительность                        : 4 м. 29 с.
Режим общего битрейта                    : Переменный
Общий поток                              : 10,2 Мбит/сек
Программа кодирования                    : TMPGEnc Video Mastering Works 5 Version. 5.4.0.100
Видео
Идентификатор                            : 2
Формат                                   : AVC
Формат/Информация                        : Advanced Video Codec
Профиль формата                          : Baseline@L4.1
Параметр CABAC формата                   : Нет
Параметр ReFrames формата                : 4 кадра
Идентификатор кодека                     : avc1
Идентификатор кодека/Информация          : Advanced Video Coding
Продолжительность                        : 4 м. 29 с.
Вид битрейта                             : Постоянный
Битрейт                                  : 10000 Кбит/сек
Ширина                                   : 1920 пикселей
Высота                                   : 1080 пикселей
Соотношение сторон                       : 16:9
Режим частоты кадров                     : Постоянный
Частота кадров                           : 23,976 кадра/сек
Стандарт вещания                         : Component
Цветовое пространство                    : YUV
Субдискретизация насыщенности            : 4:2:0
Битовая глубина                          : 8 бит
Тип развёртки                            : Прогрессивная
Бит/(Пиксели*Кадры)                      : 0.201
Размер потока                            : 317 Мбайт (97%)
Библиотека кодирования                   : x264 core 125
Настройки программы                      : cabac=0 / ref=4 / deblock=1:0:0 / analyse=0x1:0x111 / me=dia / subme=2 / psy=1 / psy_rd=1.00:0.00 / mixed_ref=0 / me_range=16 / chroma_me=1 / trellis=0 / 8x8dct=0 / cqm=0 / deadzone=21,11 / fast_pskip=1 / chroma_qp_offset=0 / threads=6 / lookahead_threads=1 / sliced_threads=0 / slices=1 / nr=0 / decimate=1 / interlaced=0 / bluray_compat=0 / constrained_intra=0 / bframes=0 / weightp=0 / keyint=300 / keyint_min=23 / scenecut=40 / intra_refresh=0 / rc_lookahead=10 / rc=cbr / mbtree=1 / bitrate=10000 / ratetol=1.0 / qcomp=0.60 / qpmin=0 / qpmax=69 / qpstep=4 / vbv_maxrate=10000 / vbv_bufsize=10000 / nal_hrd=cbr / ip_ratio=1.40 / aq=1:1.00
Основные цвета                           : BT.709-5, BT.1361, IEC 61966-2-4, SMPTE RP177
Характеристики трансфера                 : BT.709-5, BT.1361
Коэффициенты матрицы                     : BT.709-5, BT.1361, IEC 61966-2-4 709, SMPTE RP177
Аудио
Идентификатор                            : 1
Формат                                   : AAC
Формат/Информация                        : Advanced Audio Codec
Профиль формата                          : LC
Идентификатор кодека                     : 40
Продолжительность                        : 4 м. 29 с.
Вид битрейта                             : Переменный
Битрейт                                  : 317 Кбит/сек
Максимальный битрейт                     : 576 Кбит/сек
Каналы                                   : 2 канала
Расположение каналов                     : Front: L R
Частота                                  : 48,0 КГц
Метод сжатия                             : С потерями
Размер потока                            : 10,2 Мбайт (3%)
Продолжительность: 00:03:20
Контейнер: MPEG4
Видео: 1920 x 1080 (1.778) at 23.976 fps AVC at 49,5 Мбит/сек
Аудио: 2 канала, 48,0 КГц AAC at 317 Кбит/сек
Код: Выделить всё
Формат                                   : MPEG-4
Профиль формата                          : Base Media / Version 2
Идентификатор кодека                     : mp42 (mp42/mp41)
Размер файла                             : 1,16 Гбайт
Продолжительность                        : 3 м. 20 с.
Режим общего битрейта                    : Переменный
Общий поток                              : 49,9 Мбит/сек
©TIM                                     : 00:00:00:00
©TSC                                     : 24000
©TSZ                                     : 1001
Видео
Идентификатор                            : 1
Формат                                   : AVC
Формат/Информация                        : Advanced Video Codec
Профиль формата                          : Main@L4.1
Параметр CABAC формата                   : Да
Параметр ReFrames формата                : 4 кадра
Идентификатор кодека                     : avc1
Идентификатор кодека/Информация          : Advanced Video Coding
Продолжительность                        : 3 м. 20 с.
Битрейт                                  : 49,5 Мбит/сек
Ширина                                   : 1920 пикселей
Высота                                   : 1080 пикселей
Соотношение сторон                       : 16:9
Режим частоты кадров                     : Постоянный
Частота кадров                           : 23,976 (24000/1001) кадра/сек
Стандарт вещания                         : NTSC
Цветовое пространство                    : YUV
Субдискретизация насыщенности            : 4:2:0
Битовая глубина                          : 8 бит
Тип развёртки                            : Прогрессивная
Бит/(Пиксели*Кадры)                      : 0.996
Размер потока                            : 1,16 Гбайт (99%)
Язык                                     : English
Цветовой диапазон                        : Limited
Основные цвета                           : BT.709
Характеристики трансфера                 : BT.709
Коэффициенты матрицы                     : BT.709
Аудио
Идентификатор                            : 2
Формат                                   : AAC
Формат/Информация                        : Advanced Audio Codec
Профиль формата                          : LC
Идентификатор кодека                     : 40
Продолжительность                        : 3 м. 20 с.
Продолжительность оригинала              : 3 м. 20 с.
Вид битрейта                             : Переменный
Битрейт                                  : 317 Кбит/сек
Максимальный битрейт                     : 445 Кбит/сек
Каналы                                   : 2 канала
Расположение каналов                     : Front: L R
Частота                                  : 48,0 КГц
Частота кадров                           : 46,875 кадров/сек (1024 spf)
Метод сжатия                             : С потерями
Размер потока                            : 7,58 Мбайт (1%)
Размер потока оригинала                  : 7,58 Мбайт (1%)
Язык                                     : English
Продолжительность: 00:04:31
Контейнер: MPEG4
Видео: 1920 x 1080 (1.778) at 23.976 fps AVC at 10,0 Мбит/сек
Аудио: 2 канала, 48,0 КГц AAC at 128 Кбит/сек
Код: Выделить всё
Формат                                   : MPEG-4
Профиль формата                          : Base Media / Version 2
Идентификатор кодека                     : mp42 (mp42/avc1/isom/M4V )
Размер файла                             : 329 Мбайт
Продолжительность                        : 4 м. 31 с.
Общий поток                              : 10,2 Мбит/сек
Тип содержимого                          : Short Film
Библиотека кодирования                   : Apple QuickTime
Обложка                                  : Yes
Видео
Идентификатор                            : 1
Формат                                   : AVC
Формат/Информация                        : Advanced Video Codec
Профиль формата                          : Main@L4
Параметр CABAC формата                   : Нет
Параметр ReFrames формата                : 3 кадра
Параметр GOP формата                     : M=2, N=24
Идентификатор кодека                     : avc1
Идентификатор кодека/Информация          : Advanced Video Coding
Продолжительность                        : 4 м. 31 с.
Битрейт                                  : 10,0 Мбит/сек
Ширина                                   : 1920 пикселей
Высота                                   : 1080 пикселей
Соотношение сторон                       : 16:9
Режим частоты кадров                     : Постоянный
Частота кадров                           : 23,976 (23976/1000) кадра/сек
Частота кадров в оригинале               : 23,976 (24000/1001) кадра/сек
Стандарт вещания                         : NTSC
Цветовое пространство                    : YUV
Субдискретизация насыщенности            : 4:2:0
Битовая глубина                          : 8 бит
Тип развёртки                            : Прогрессивная
Бит/(Пиксели*Кадры)                      : 0.202
Размер потока                            : 325 Мбайт (99%)
Язык                                     : English
Цветовой диапазон                        : Limited
Основные цвета                           : BT.709
Характеристики трансфера                 : BT.709
Коэффициенты матрицы                     : BT.709
Аудио
Идентификатор                            : 2
Формат                                   : AAC
Формат/Информация                        : Advanced Audio Codec
Профиль формата                          : LC
Идентификатор кодека                     : 40
Продолжительность                        : 4 м. 31 с.
Вид битрейта                             : Постоянный
Битрейт                                  : 128 Кбит/сек
Каналы                                   : 2 канала
Расположение каналов                     : Front: L R
Частота                                  : 48,0 КГц
Частота кадров                           : 46,875 кадров/сек (1024 spf)
Метод сжатия                             : С потерями
Размер потока                            : 4,15 Мбайт (1%)
Язык                                     : English
 
Не забывайте говорить Спасибо. Не уходите с раздачи!   
Торрент: Зарегистрирован [25 май 2018, 20:40] Скачать торрент
Скачать торрент
[ Размер 28.94 КБ / Просмотров 1 ]
Статус:
Проверен
 
.torrent скачан: 0 раз
Хэш: c6edd65001a02224be2a07c78ee561704fac39eb
Размер: 5.47 ГБ (5 875 466 155 байт)
Стать Автором раздачи
 
 
Раздал: 0 байт
Скачал: 0 байт
Ратио: Inf.
Сообщения: 487468
Зарегистрирован: 17 апр 2014, 13:57


  • Похожие торренты
    Ответы
    Просмотры
    Последнее сообщение

Вернуться в Зарубежная Поп-музыка, Шансон, Eurodance, Disco (HD Video)

Ресурс не предоставляет электронные версии произведений, а занимается лишь коллекционированием и каталогизацией ссылок, присылаемых и публикуемых на форуме нашими читателями. Если вы являетесь правообладателем какого-либо представленного материала и не желаете чтобы ссылка на него находилась в нашем каталоге, свяжитесь с нами и мы незамедлительно удалим её. Файлы для обмена на трекере предоставлены пользователями сайта, и администрация не несёт ответственности за их содержание. Просьба не заливать файлы, защищенные авторскими правами, а также файлы нелегального содержания!
cron