Закрой глаза (Ольга Субботина) [2015, фэнтези, мистика, драма, WEB-DLRip]

 
 Статистика раздачи 
Размер: 1.46 ГБ   |  Зарегистрирован: 25 май 2018, 13:05   |   .torrent скачан: 0 раз
Сидеров: 1  [ 0 байт/сек ]     Личеров: 0  [ 0 байт/сек ]  
  

Закрой глаза (Ольга Субботина) [2015, фэнтези, мистика, драма, WEB-DLRip]

Сообщение Nakazhu » 25 май 2018, 13:05

Закрой глаза
Жанр: фэнтези, мистика, драма
Год выпуска: 2015
Продолжительность: 01:46:33
Режиссёр: Ольга Субботина
В ролях: Гоша Бондарев, Софья Хилькова, Светлана Иванова, Анатолий Белый, Юрки Линнанкиви, Анна Хилькевич, Валентина Талызина, Нина Корниенко, Мириам Сехон, Наталия Моргунова

Описание: Фоке еще не исполнилось и семи лет. Он живет с родителями и старшей сестрой в большом загородном доме. Какая она, вселенная ребенка, знающего только родной двор подмосковного коттеджа, двор, в котором нет друзей? Как отразится на хрупком мире маленького мальчика соседство с бурлящей и претерпевающей катастрофы жизнью сестры? Каждую ночь мальчика посещает таинственный ночной гость, сошедший с готических плакатов в её комнате. Захватывающие беседы с гостем помогают Фоке осмыслить обыденные события его жизни: ссоры родителей, истерики старшей сестры, свои первые успехи и промахи в школе. В этой вселенной из видений и происшествий мальчику предстоит пройти очень важный этап взросления, который проходит каждый человек. Но только где грань между миром ночных грез и дневной реальности?
Кинопоиск
Sample
Качество видео: WEB-DLRip
Формат видео: AVI
Видео: 720x304 (2.35:1), 24 fps, XviD, ~1568 kbps avg, 0.29 bit/pixel
Аудио: 48 kHz, AC3 Dolby Digital, 3/2 (L,C,R,l,r) + LFE ch, ~384 kbps
General
Complete name : D:\Закрой глаза WEB-DLRip.avi
Format : AVI
Format/Info : Audio Video Interleave
File size : 1.46 GiB
Duration : 1 h 46 min
Overall bit rate : 1 962 kb/s
Writing application : VirtualDubMod 1.5.10.3 | www.virtualdub-fr.org || (build 2550/release)
Writing library : VirtualDubMod build 2550/release
Video
ID : 0
Format : MPEG-4 Visual
Format profile : Advanced Simple@L5
Format settings : BVOP2
Format settings, BVOP : 2
Format settings, QPel : No
Format settings, GMC : No warppoints
Format settings, Matrix : Default (MPEG)
Codec ID : XVID
Codec ID/Hint : XviD
Duration : 1 h 46 min
Bit rate : 1 568 kb/s
Width : 720 pixels
Height : 304 pixels
Display aspect ratio : 2.35:1
Frame rate : 24.000 FPS
Color space : YUV
Chroma subsampling : 4:2:0
Bit depth : 8 bits
Scan type : Progressive
Compression mode : Lossy
Bits/(Pixel*Frame) : 0.299
Stream size : 1.17 GiB (80%)
Writing library : XviD 1.2.1 (UTC 2008-12-04)
Audio
ID : 1
Format : AC-3
Format/Info : Audio Coding 3
Codec ID : 2000
Duration : 1 h 46 min
Bit rate mode : Constant
Bit rate : 384 kb/s
Channel(s) : 6 channels
Channel positions : Front: L C R, Side: L R, LFE
Sampling rate : 48.0 kHz
Frame rate : 31.250 FPS (1536 SPF)
Bit depth : 16 bits
Compression mode : Lossy
Stream size : 293 MiB (20%)
Alignment : Split accross interleaves
Interleave, duration : 42 ms (1.00 video frame)
Interleave, preload duratio : 500 ms
Service kind : Complete Main


 
Не забывайте говорить Спасибо. Не уходите с раздачи!   
Торрент: Зарегистрирован [25 май 2018, 13:05] Для скачивания .torrent
необходима регистрация
Или скачать с помощью
MediaGet
Статус:
Проверен
 
.torrent скачан: 0 раз
Хэш: 797a3e9124c6674be481eea27b92c858188171ae
Размер: 1.46 ГБ (1 567 735 808 байт)
Стать Автором раздачи
 
 
Раздал: 0 байт
Скачал: 0 байт
Ратио: Inf.
Сообщения: 471957
Зарегистрирован: 17 апр 2014, 13:57


  • Похожие торренты
    Ответы
    Просмотры
    Последнее сообщение

Вернуться в Отечественные фильмы 2011 - 2015 года

Ресурс не предоставляет электронные версии произведений, а занимается лишь коллекционированием и каталогизацией ссылок, присылаемых и публикуемых на форуме нашими читателями. Если вы являетесь правообладателем какого-либо представленного материала и не желаете чтобы ссылка на него находилась в нашем каталоге, свяжитесь с нами и мы незамедлительно удалим её. Файлы для обмена на трекере предоставлены пользователями сайта, и администрация не несёт ответственности за их содержание. Просьба не заливать файлы, защищенные авторскими правами, а также файлы нелегального содержания!
cron