Упражнения в прекрасном (2011) WEBRip от Portablius

 
 Статистика раздачи 
Размер: 1.45 ГБ   |  Зарегистрирован: 24 май 2018, 13:11   |   .torrent скачан: 0 раз
Сидеров: 1  [ 0 байт/сек ]     Личеров: 0  [ 0 байт/сек ]  
  

Упражнения в прекрасном (2011) WEBRip от Portablius

Сообщение apple2000 » 24 май 2018, 13:11

Информация о фильме
Название: Упражнения в прекрасном
Год выхода: 2011
Жанр: Комедия
Режиссер: Виктор Шамиров
В ролях: Гоша Куценко, Виктор Шамиров, Константин Юшкевич, Ксения Радченко, Павел Савинков, Ирина Апексимова, Роберт Саральп, Борис Ноткин, Лев Бурштейн, Елена Грибова, Александр Евдокимов, Иван и Илья Ивановы, Ирина Кириллова, Ольга Крылова, Игорь Лебедев, Дмитрий Осинцев, Дарья Плавинская, Галина Сергеева, Александр Тырымов, Армен Филиппов

О фильме: Название картины и главный вопрос связаны с цитатой из Гёте: "Разучивание прекрасного и постоянные упражнения в прекрасном неизбежно поднимают человека, если только он не совсем обижен природой". Обижены ли природой наши герои, помогают ли им регулярные "упражнения в прекрасном" увидеть больше смысла в происходящем? Кто они, откуда и зачем? Гастарбайтеры, из Москвы - так отвечает на эти вопросы главный герой, столичная "звезда" Евгений Калинин. Актеры антрепризы отправляются на гастроли, "за баблом". На гастролях – всё иначе. Герои фильма - Евгений Калинин, Альберт Свенцицкий, Василий, Андрюс и Алиса - едут, пьют, ссорятся, мирятся и живут, играя до, во время и после спектакля.


Страна: Россия
Продолжительность: 01:33:18
Перевод: Не требуется
Субтитры: Нет

Файл
Кодек: XviD
Качество: WEBRip
Видео: 688x368 (1.87:1), 25 fps, XviD build 73 ~1835 kbps avg, 0.29 bit/pixel
Звук: 48 kHz, AC3 Dolby Digital, 3/2 (L,C,R,l,r) + LFE ch, ~384 kbps

General
Complete name : Uprazhneniya.v.prekrasnom.2011.WEBRip.ot.Portablius.avi
Format : AVI
Format/Info : Audio Video Interleave
File size : 1.45 GiB
Duration : 1 h 33 min
Overall bit rate : 2 229 kb/s
Writing application : VirtualDubMod 1.5.10.3 | www.virtualdub-fr.org || (build 2550/release)
Writing library : VirtualDubMod build 2550/release

Video
ID : 0
Format : MPEG-4 Visual
Format profile : Advanced Simple@L5
Format settings, BVOP : 1
Format settings, QPel : No
Format settings, GMC : No warppoints
Format settings, Matrix : Custom
Codec ID : XVID
Codec ID/Hint : XviD
Duration : 1 h 33 min
Bit rate : 1 835 kb/s
Width : 688 pixels
Height : 368 pixels
Display aspect ratio : 1.85:1
Frame rate : 25.000 FPS
Color space : YUV
Chroma subsampling : 4:2:0
Bit depth : 8 bits
Scan type : Progressive
Compression mode : Lossy
Bits/(Pixel*Frame) : 0.290
Stream size : 1.20 GiB (82%)
Writing library : XviD 73

Audio
ID : 1
Format : AC-3
Format/Info : Audio Coding 3
Format settings, Endianness : Big
Codec ID : 2000
Duration : 1 h 33 min
Bit rate mode : Constant
Bit rate : 384 kb/s
Channel(s) : 6 channels
Channel positions : Front: L C R, Side: L R, LFE
Sampling rate : 48.0 kHz
Frame rate : 31.250 FPS (1536 spf)
Bit depth : 16 bits
Compression mode : Lossy
Stream size : 256 MiB (17%)
Alignment : Split accross interleaves
Interleave, duration : 40 ms (1.00 video frame)
Interleave, preload duratio : 500 ms
Service kind : Complete Main

 
Не забывайте говорить Спасибо. Не уходите с раздачи!   
Торрент: Зарегистрирован [24 май 2018, 13:11] Скачать торрент
Скачать торрент
[ Размер 15.42 КБ / Просмотров 2 ]
Статус:
Проверен
 
.torrent скачан: 0 раз
Хэш: 3ad57e90b30578f31867fd8695c20b2d0727ff24
Размер: 1.45 ГБ (1 559 881 728 байт)
Стать Автором раздачи
 
 
Раздал: 0 байт
Скачал: 0 байт
Ратио: Inf.
Сообщения: 42425
Зарегистрирован: 05 окт 2014, 15:23


  • Похожие торренты
    Ответы
    Просмотры
    Последнее сообщение

Вернуться в Отечественные фильмы 2011 - 2015 года

Ресурс не предоставляет электронные версии произведений, а занимается лишь коллекционированием и каталогизацией ссылок, присылаемых и публикуемых на форуме нашими читателями. Если вы являетесь правообладателем какого-либо представленного материала и не желаете чтобы ссылка на него находилась в нашем каталоге, свяжитесь с нами и мы незамедлительно удалим её. Файлы для обмена на трекере предоставлены пользователями сайта, и администрация не несёт ответственности за их содержание. Просьба не заливать файлы, защищенные авторскими правами, а также файлы нелегального содержания!
cron