Упражнения в прекрасном (2011) WEBRip 720p от KORSAR

 
 Статистика раздачи 
Размер: 4.9 ГБ   |  Зарегистрирован: 24 май 2018, 13:08   |   .torrent скачан: 0 раз
Сидеров: 1  [ 0 байт/сек ]     Личеров: 0  [ 0 байт/сек ]  
  

Упражнения в прекрасном (2011) WEBRip 720p от KORSAR

Сообщение apple2000 » 24 май 2018, 13:08

Информация о фильме
Название: Упражнения в прекрасном
Год выхода: 2011
Жанр: Комедия
Страна: Россия
Продолжительность: 01:33:18
Перевод: Не требуется
Режиссёр: Виктор Шамиров
В ролях: Гоша Куценко, Виктор Шамиров, Константин Юшкевич, Ксения Радченко, Павел Савинков, Ирина Апексимова, Роберт Саральп, Борис Ноткин, Лев Бурштейн, Елена Грибова, Александр Евдокимов, Иван и Илья Ивановы, Ирина Кириллова, Ольга Крылова, Игорь Лебедев, Дмитрий Осинцев, Дарья Плавинская, Галина Сергеева, Александр Тырымов, Армен Филиппов

О фильме
Название картины и главный вопрос связаны с цитатой из Гёте: "Разучивание прекрасного и постоянные упражнения в прекрасном неизбежно поднимают человека, если только он не совсем обижен природой". Обижены ли природой наши герои, помогают ли им регулярные "упражнения в прекрасном" увидеть больше смысла в происходящем? Кто они, откуда и зачем? Гастарбайтеры, из Москвы - так отвечает на эти вопросы главный герой, столичная "звезда" Евгений Калинин. Актеры антрепризы отправляются на гастроли, "за баблом". На гастролях – всё иначе. Герои фильма - Евгений Калинин, Альберт Свенцицкий, Василий, Андрюс и Алиса - едут, пьют, ссорятся, мирятся и живут, играя до, во время и после спектакля.



Файл
Качество: WEBRip 720p
Видео: MPEG-4 AVC, 1280x690, 6924 Кбит/с, 25.000 fps
Аудио: АС3, 6 ch, 448 Кбит/с
Субтитры: Нет
Навигация по главам: Есть

Релиз от:


Общее
Уникальный идентификатор : 226771607551724490476885848644894524168 (0xAA9A9F79C96E42B2B31CCA3BF3E30308)
Полное имя : Упражнения в прекрасном_2011_WEBRip_720p_KORSAR.mkv
Формат : Matroska
Версия формата : Version 2
Размер файла : 4,90 Гбайт
Продолжительность : 1 ч. 33 м.
Общий поток : 7522 Кбит/сек
Название фильма : Упражнения в прекрасном_2011_WEBRip_720p_KORSAR
Дата кодирования : UTC 2018-04-29 10:55:36
Программа кодирования : mkvmerge v5.8.0 ('No Sleep / Pillow') built on Sep 2 2012 15:37:04
Библиотека кодирования : libebml v1.2.3 + libmatroska v1.3.0

Видео
Идентификатор : 1
Формат : AVC
Формат/Информация : Advanced Video Codec
Профиль формата : High@L4.1
Параметр CABAC формата : Да
Параметр RefFrames формата : 9 кадров
Идентификатор кодека : V_MPEG4/ISO/AVC
Продолжительность : 1 ч. 33 м.
Битрейт : 6924 Кбит/сек
Ширина : 1280 пикселей
Высота : 690 пикселей
Соотношение сторон : 1,85:1
Режим частоты кадров : Постоянный
Частота кадров : 25,000 кадров/сек
Цветовое пространство : YUV
Субдискретизация насыщенности : 4:2:0
Битовая глубина : 8 бит
Тип развёртки : Прогрессивная
Бит/(Пиксели*Кадры) : 0.314
Размер потока : 4,51 Гбайт (92%)
Библиотека кодирования : x264 core 148 r2744kMod b97ae06
Настройки программы : cabac=1 / ref=9 / deblock=1:-2:-1 / analyse=0x3:0x113 / me=umh / subme=10 / psy=1 / fade_compensate=0.00 / psy_rd=1.05:0.10 / mixed_ref=1 / me_range=40 / chroma_me=1 / trellis=2 / 8x8dct=1 / cqm=0 / deadzone=21,11 / fast_pskip=1 / chroma_qp_offset=-3 / threads=12 / lookahead_threads=3 / sliced_threads=0 / nr=0 / decimate=1 / interlaced=0 / bluray_compat=0 / constrained_intra=0 / bframes=11 / b_pyramid=2 / b_adapt=2 / b_bias=0 / direct=1 / weightb=1 / open_gop=0 / weightp=2 / keyint=250 / keyint_min=25 / scenecut=40 / intra_refresh=0 / rc=crf / mbtree=0 / crf=17.9000 / qcomp=0.63 / qpmin=0 / qpmax=39 / qpstep=4 / ip_ratio=1.40 / pb_ratio=1.30 / aq=2:0.70
Язык : English
Default : Да
Forced : Нет
Цветовой диапазон : Limited
Основные цвета : BT.709
Характеристики трансфера : BT.709
Коэффициенты матрицы : BT.709

Аудио
Идентификатор : 2
Формат : AC-3
Формат/Информация : Audio Coding 3
Параметр Endianness формата : Big
Идентификатор кодека : A_AC3
Продолжительность : 1 ч. 33 м.
Вид битрейта : Постоянный
Битрейт : 448 Кбит/сек
Каналы : 6 каналов
Расположение каналов : Front: L C R, Side: L R, LFE
Частота : 48,0 КГц
Частота кадров : 31,250 кадров/сек (1536 SPF)
Битовая глубина : 16 бит
Метод сжатия : С потерями
Размер потока : 299 Мбайт (6%)
Язык : Russian
Default : Да
Forced : Нет

Меню
00:00:00.000 : en:Chapter 1
00:01:28.320 : en:Chapter 2
00:14:04.320 : en:Chapter 3
00:26:28.800 : en:Chapter 4
00:37:51.840 : en:Chapter 5
00:50:47.040 : en:Chapter 6
01:03:24.480 : en:Chapter 7
01:15:23.520 : en:Chapter 8
01:29:14.400 : en:Chapter 9
 
Не забывайте говорить Спасибо. Не уходите с раздачи!   
Торрент: Зарегистрирован [24 май 2018, 13:08] Скачать торрент
Скачать торрент
[ Размер 25.56 КБ / Просмотров 4 ]
Статус:
Проверен
 
.torrent скачан: 0 раз
Хэш: 60d7e4109d4a68649f52000c26d05183b883976e
Размер: 4.9 ГБ (5 264 199 363 байт)
Стать Автором раздачи
 
 
Раздал: 0 байт
Скачал: 0 байт
Ратио: Inf.
Сообщения: 41070
Зарегистрирован: 05 окт 2014, 15:23


  • Похожие торренты
    Ответы
    Просмотры
    Последнее сообщение

Вернуться в Отечественные фильмы 2011 - 2015 года

Ресурс не предоставляет электронные версии произведений, а занимается лишь коллекционированием и каталогизацией ссылок, присылаемых и публикуемых на форуме нашими читателями. Если вы являетесь правообладателем какого-либо представленного материала и не желаете чтобы ссылка на него находилась в нашем каталоге, свяжитесь с нами и мы незамедлительно удалим её. Файлы для обмена на трекере предоставлены пользователями сайта, и администрация не несёт ответственности за их содержание. Просьба не заливать файлы, защищенные авторскими правами, а также файлы нелегального содержания!
cron