Серафим: несколько дней из жизни монаха. Серафимовы братья (Н.Князев) [2003, торжество Православия, DVDRip]

 
 Статистика раздачи 
Размер: 625.86 МБ   |  Зарегистрирован: 21 май 2018, 01:26   |   .torrent скачан: 0 раз
Сидеров: 1  [ 0 байт/сек ]     Личеров: 0  [ 0 байт/сек ]  
  

Серафим: несколько дней из жизни монаха. Серафимовы братья (Н.Князев) [2003, торжество Православия, DVDRip]

Сообщение Nakazhu » 21 май 2018, 01:26

Серафим: несколько дней из жизни монаха. Серафимовы братья
Дата/Год выпуска: 2003
Страна
: Россия
Жанр: торжество Православия
Продолжительность: 00:55:17
Перевод: Не требуется
Русские субтитры: нет
Оригинальная аудиодорожка: русский
Режиссер: Н.Князев
Описание: Фильм о жизни Игумена Серафима настоятеля Спасо-Преображенского мужского монастыря с. Хмелево, где хранится икона божей матери Ченстоховская, написана евангелистом Лукой почти 2000 лет назад.
Несмотря на большой поток паломников, обитель в Хмелево непрерывно строится, причем собственными силами. Хотя в братии всего 15 человек, они смогли возвести второй храм, три корпуса для проживания и корпус трапезной, гаражи, хозпостройки. Приобрели вагончики для размещения приезжих, каждый год заготавливают огромное количество дров, поскольку во всех зданиях печное отопление, обрабатывают 22 гектара земли, занимаясь полеводством, садоводством, пчеловодством. Излишки продовольствия отдают неимущим людям, школам и детсаду. И есть главное, для чего и создают монастыри, — молитва за весь мир и каждого из нас.
качество: DVDRip
формат: AVI
Видео: MPEG4, XviD, 720x544 (4:3), 25.000 fps, 1 442 Kbps (0.147 bit/pixel)
Аудио: MP3, 48.0 KHz, 2 ch, 128 Kbps, CBR
Код: Выделить всё
General
Complete name                            : C:\Users\User\Downloads\Серафим_ несколько дней из жизни монаха. Серафимовы братья.avi
Format                                   : AVI
Format/Info                              : Audio Video Interleave
File size                                : 626 MiB
Duration                                 : 55mn 17s
Overall bit rate                         : 1 583 Kbps
Video
ID                                       : 0
Format                                   : MPEG-4 Visual
Format profile                           : Advanced Simple@L5
Format settings, BVOP                    : 1
Format settings, QPel                    : No
Format settings, GMC                     : No warppoints
Format settings, Matrix                  : Default (H.263)
Codec ID                                 : XVID
Codec ID/Hint                            : XviD
Duration                                 : 55mn 17s
Bit rate                                 : 1 442 Kbps
Width                                    : 720 pixels
Height                                   : 544 pixels
Display aspect ratio                     : 4:3
Frame rate                               : 25.000 fps
Color space                              : YUV
Chroma subsampling                       : 4:2:0
Bit depth                                : 8 bits
Scan type                                : Progressive
Compression mode                         : Lossy
Bits/(Pixel*Frame)                       : 0.147
Stream size                              : 570 MiB (91%)
Writing library                          : XviD 1.2.1 (UTC 2008-12-04)
Audio
ID                                       : 1
Format                                   : MPEG Audio
Format version                           : Version 1
Format profile                           : Layer 3
Mode                                     : Joint stereo
Mode extension                           : MS Stereo
Codec ID                                 : 55
Codec ID/Hint                            : MP3
Duration                                 : 55mn 17s
Bit rate mode                            : Constant
Bit rate                                 : 128 Kbps
Channel(s)                               : 2 channels
Sampling rate                            : 48.0 KHz
Compression mode                         : Lossy
Delay relative to video                  : 40ms
Stream size                              : 50.6 MiB (8%)
Alignment                                : Aligned on interleaves
Interleave, duration                     : 24 ms (0.60 video frame)
Interleave, preload duration             : 504 ms
 
Не забывайте говорить Спасибо. Не уходите с раздачи!   
Торрент: Зарегистрирован [21 май 2018, 01:26] Для скачивания .torrent
необходима регистрация
Или скачать с помощью
MediaGet
Статус:
Проверен
 
.torrent скачан: 0 раз
Хэш: ffa1e96aafdf0d622a12f0dd16833d4a7c1afc81
Размер: 625.86 МБ (656 257 178 байт)
Стать Автором раздачи
 
 
Раздал: 0 байт
Скачал: 0 байт
Ратио: Inf.
Сообщения: 487468
Зарегистрирован: 17 апр 2014, 13:57


  • Похожие торренты
    Ответы
    Просмотры
    Последнее сообщение

Вернуться в Вера и религия (видео)

Ресурс не предоставляет электронные версии произведений, а занимается лишь коллекционированием и каталогизацией ссылок, присылаемых и публикуемых на форуме нашими читателями. Если вы являетесь правообладателем какого-либо представленного материала и не желаете чтобы ссылка на него находилась в нашем каталоге, свяжитесь с нами и мы незамедлительно удалим её. Файлы для обмена на трекере предоставлены пользователями сайта, и администрация не несёт ответственности за их содержание. Просьба не заливать файлы, защищенные авторскими правами, а также файлы нелегального содержания!
cron