Неугасимый свет любви (Л. Самбурская) [2013, торжество Православия, DVDRip]

 
 Статистика раздачи 
Размер: 654.83 МБ   |  Зарегистрирован: 21 май 2018, 01:18   |   .torrent скачан: 0 раз
Сидеров: 1  [ 0 байт/сек ]     Личеров: 0  [ 0 байт/сек ]  
  

Неугасимый свет любви (Л. Самбурская) [2013, торжество Православия, DVDRip]

Сообщение Nakazhu » 21 май 2018, 01:18

Неугасимый свет любви
Дата/Год выпуска: 2013
Страна
: Россия
Жанр: торжество Православия
Продолжительность: 00:48:23
Перевод: Не требуется
Русские субтитры: нет
Оригинальная аудиодорожка: русский
Режиссер: Л. Самбурская
Описание: В фильме - повествование об архимандрите Серафиме (Тяпочкине), прежде всего и по преимуществу, документально. Это итог более чем двадцатилетнего поиска свидетельств о жизни и трудах старца, которые расширились и обогатились благодаря письмам читателей, присланным после выхода первого издания книги о нем в 1998 году.
Все эти откровения, жизненные истории, обстоятельства, порой драматические, в которых старец упоминается как духовный пастырь, молитвенник, как целитель, являют собой яркую и убедительную картину христианской святости. Это согревает самые холодные души, смягчает окаменелые сердца, вызывает в людях любовь и благодарность к батюшке, которого они почитают как святого.
качество: DVDRip
формат: AVI
Видео: MPEG4, XviD, 720x544 (4:3), 25.000 fps, 1 695 Kbps (0.173 bit/pixel)
Аудио: AC-3, 48.0 KHz, 2 ch, 192 Kbps, CBR
Код: Выделить всё
General
Complete name                            : G:\Неугасимый свет любви.avi
Format                                   : AVI
Format/Info                              : Audio Video Interleave
File size                                : 655 MiB
Duration                                 : 48mn 23s
Overall bit rate                         : 1 892 Kbps
Movie name                               : Неугасимый свет любви
Writing application                      : MEncoder Redxii-SVN-r36739-4.8.2
Video
ID                                       : 0
Format                                   : MPEG-4 Visual
Format profile                           : Advanced Simple@L5
Format settings, BVOP                    : 1
Format settings, QPel                    : No
Format settings, GMC                     : No warppoints
Format settings, Matrix                  : Default (H.263)
Codec ID                                 : XVID
Codec ID/Hint                            : XviD
Duration                                 : 48mn 22s
Bit rate                                 : 1 695 Kbps
Width                                    : 720 pixels
Height                                   : 544 pixels
Display aspect ratio                     : 4:3
Original display aspect ratio            : 4:3
Frame rate                               : 25.000 fps
Color space                              : YUV
Chroma subsampling                       : 4:2:0
Bit depth                                : 8 bits
Scan type                                : Progressive
Compression mode                         : Lossy
Bits/(Pixel*Frame)                       : 0.173
Stream size                              : 587 MiB (90%)
Writing library                          : XviD 64
Audio
ID                                       : 1
Format                                   : AC-3
Format/Info                              : Audio Coding 3
Mode extension                           : CM (complete main)
Format settings, Endianness              : Big
Codec ID                                 : 2000
Duration                                 : 48mn 23s
Bit rate mode                            : Constant
Bit rate                                 : 192 Kbps
Channel(s)                               : 2 channels
Channel positions                        : Front: L R
Sampling rate                            : 48.0 KHz
Bit depth                                : 16 bits
Compression mode                         : Lossy
Delay relative to video                  : 40ms
Stream size                              : 66.4 MiB (10%)
Alignment                                : Split accross interleaves
Interleave, duration                     : 500 ms (12.50 video frames)
Interleave, preload duration             : 135 ms
 
Не забывайте говорить Спасибо. Не уходите с раздачи!   
Торрент: Зарегистрирован [21 май 2018, 01:18] Скачать торрент
Скачать торрент
[ Размер 13.25 КБ / Просмотров 3 ]
Статус:
Проверен
 
.torrent скачан: 0 раз
Хэш: 29fd854adf69f8588dc403c700c54df1a8c1b4b1
Размер: 654.83 МБ (686 640 610 байт)
Стать Автором раздачи
 
 
Раздал: 0 байт
Скачал: 0 байт
Ратио: Inf.
Сообщения: 487468
Зарегистрирован: 17 апр 2014, 13:57


  • Похожие торренты
    Ответы
    Просмотры
    Последнее сообщение

Вернуться в Вера и религия (видео)

Ресурс не предоставляет электронные версии произведений, а занимается лишь коллекционированием и каталогизацией ссылок, присылаемых и публикуемых на форуме нашими читателями. Если вы являетесь правообладателем какого-либо представленного материала и не желаете чтобы ссылка на него находилась в нашем каталоге, свяжитесь с нами и мы незамедлительно удалим её. Файлы для обмена на трекере предоставлены пользователями сайта, и администрация не несёт ответственности за их содержание. Просьба не заливать файлы, защищенные авторскими правами, а также файлы нелегального содержания!
cron