Ответы на вопросы прихожан. Протоиерей Дмитрий Смирнов [2005, торжество Православия, DVDRip]

 
 Статистика раздачи 
Размер: 699.67 МБ   |  Зарегистрирован: 21 май 2018, 01:15   |   .torrent скачан: 0 раз
Сидеров: 1  [ 0 байт/сек ]     Личеров: 0  [ 0 байт/сек ]  
  

Ответы на вопросы прихожан. Протоиерей Дмитрий Смирнов [2005, торжество Православия, DVDRip]

Сообщение Nakazhu » 21 май 2018, 01:15

Ответы на вопросы прихожан. Протоиерей Дмитрий Смирнов
Дата/Год выпуска: 2005
Страна
: Россия
Жанр: торжество Православия
Продолжительность: 01:14:43
Перевод: Не требуется
Русские субтитры: нет
Оригинальная аудиодорожка: русский
Описание: Беседует протоиерей Дмитрий Смирнов.
Темы беседы:
- о деятельности прихода
- об алкоголизме и курении
- творчество и духовность
- о творчестве о. Александра Меня и его миссионерской деятельности
- о службе женщин в армии
- об отношениях юношей и девушек
- о деятельности о. Андрея Кураева
- отличие современного Православия от Православия первых веков
- о посте и причастии
- о взаимоотношениях с католиками
- об отношении к чудесам в других религиях
- о нетленности мощей.
качество: DVDRip
формат: AVI
Видео: MPEG4, XviD, 704x512 (1.375), 25.000 fps, 1 172 Kbps (0.130 bit/pixel)
Аудио: MP3, 48.0 KHz, 2 ch, 128 Kbps, CBR
Код: Выделить всё
General
Complete name                            : C:\Users\User\Downloads\Ответы на вопросы прихожан. Протоиерей Дмитрий Смирнов.avi
Format                                   : AVI
Format/Info                              : Audio Video Interleave
File size                                : 700 MiB
Duration                                 : 1h 14mn
Overall bit rate                         : 1 309 Kbps
Video
ID                                       : 0
Format                                   : MPEG-4 Visual
Format profile                           : Advanced Simple@L5
Format settings, BVOP                    : 2
Format settings, QPel                    : No
Format settings, GMC                     : No warppoints
Format settings, Matrix                  : Default (H.263)
Codec ID                                 : XVID
Codec ID/Hint                            : XviD
Duration                                 : 1h 14mn
Bit rate                                 : 1 172 Kbps
Width                                    : 704 pixels
Height                                   : 512 pixels
Display aspect ratio                     : 1.375
Frame rate                               : 25.000 fps
Color space                              : YUV
Chroma subsampling                       : 4:2:0
Bit depth                                : 8 bits
Scan type                                : Progressive
Compression mode                         : Lossy
Bits/(Pixel*Frame)                       : 0.130
Stream size                              : 626 MiB (89%)
Writing library                          : XviD 1.0.3 (UTC 2004-12-20)
Audio
ID                                       : 1
Format                                   : MPEG Audio
Format version                           : Version 1
Format profile                           : Layer 3
Mode                                     : Joint stereo
Mode extension                           : MS Stereo
Codec ID                                 : 55
Codec ID/Hint                            : MP3
Duration                                 : 1h 14mn
Bit rate mode                            : Constant
Bit rate                                 : 128 Kbps
Channel(s)                               : 2 channels
Sampling rate                            : 48.0 KHz
Compression mode                         : Lossy
Stream size                              : 68.4 MiB (10%)
Alignment                                : Aligned on interleaves
Interleave, duration                     : 40 ms (1.00 video frame)
Interleave, preload duration             : 504 ms
 
Не забывайте говорить Спасибо. Не уходите с раздачи!   
Торрент: Зарегистрирован [21 май 2018, 01:15] Скачать торрент
Скачать торрент
[ Размер 14.19 КБ / Просмотров 4 ]
Статус:
Проверен
 
.torrent скачан: 0 раз
Хэш: d076621950acdda1e1b370d37690931615261d45
Размер: 699.67 МБ (733 654 402 байт)
Стать Автором раздачи
 
 
Раздал: 0 байт
Скачал: 0 байт
Ратио: Inf.
Сообщения: 487468
Зарегистрирован: 17 апр 2014, 13:57


  • Похожие торренты
    Ответы
    Просмотры
    Последнее сообщение

Вернуться в Вера и религия (видео)

Ресурс не предоставляет электронные версии произведений, а занимается лишь коллекционированием и каталогизацией ссылок, присылаемых и публикуемых на форуме нашими читателями. Если вы являетесь правообладателем какого-либо представленного материала и не желаете чтобы ссылка на него находилась в нашем каталоге, свяжитесь с нами и мы незамедлительно удалим её. Файлы для обмена на трекере предоставлены пользователями сайта, и администрация не несёт ответственности за их содержание. Просьба не заливать файлы, защищенные авторскими правами, а также файлы нелегального содержания!
cron