Мастера меча онлайн: Альтернативная «Призрачная пуля» / Sword Art Online Alternative: Gun Gale Online [TV] [1-6 из 12] [Без хардсаба] [JAP+SUB] [2018, приключения, фантастика, фэнтези, WEBRip] [1080p]

 
 Статистика раздачи 
Размер: 3.17 ГБ   |  Зарегистрирован: 21 май 2018, 00:57   |   .torrent скачан: 0 раз
Сидеров: 1  [ 0 байт/сек ]     Личеров: 0  [ 0 байт/сек ]  
  

Мастера меча онлайн: Альтернативная «Призрачная пуля» / Sword Art Online Alternative: Gun Gale Online [TV] [1-6 из 12] [Без хардсаба] [JAP+SUB] [2018, приключения, фантастика, фэнтези, WEBRip] [1080p]

Сообщение Nakazhu » 21 май 2018, 00:57


Мастера меча онлайн: Альтернативная «Призрачная пуля»
Sword Art Online Alternative: Gun Gale Online

Страна: Япония
Год выпуска: 2018
Жанр: приключения, фантастика, фэнтези
Тип: TV
Продолжительность: 12 эп., ~25 мин. эпизод
Режиссер: Сакой Масаюки
Студия: Studio 3Hz
Описание:В онлайн-мире можно быть, кем угодно. Это и привлекает в нём тех, кого в настоящей жизни что-то не устраивает, но и изменить они это не в силах. Создавая персонажа в игре, ты можешь выбрать любой пол, любую внешность, даже характер можешь постараться сделать максимально не похожим на свой. Главное в такой маскировке - не проболтаться и держать марку, тогда превращение можно считать успешным.
Главная героиня Кохируимаки Карэн сильно комплексует по поводу своего роста. Среди миниатюрных японок она выглядит настоящим гигантом, поэтому у неё не складывается даже с обычным общением, а про личную жизнь уже и говорить не стоит. Найдя игру "Призрачная пуля онлайн”, Карэн создаёт там девушку по имени ЛЛЕНН, сделав её милашкой крошечного роста, облачённой в военную форму пыльно-розового цвета. Полная противоположность готова! В игре, в которую в большинстве своём играют мужчины, ЛЛЕНН умудряется познакомиться с некоей Питоху, по всей видимости, женщиной средних лет. Вместе девушки решают принять участие в ивенте "Схватка отрядов”.
World-Art | AniDB
Качество: WEBRip
Тип релиза: Без хардсаба
Формат видео: MKV
Наличие линковки: Нет
Релиз: [HorribleSubs]
Видео: 1920x1080, x264, 3 072 kb/s, 23.976 fps, 8 бит
Аудио: AAC, 128 kb/s, 2 ch, 44.1 kHz Язык Японский
Субтитры 1 (серии 1-5): внешние, язык субтитров русский; перевод: Aero & Nika_Elrik [YakuSub Studio]
Субтитры 2 (серии 1-6): внешние, язык субтитров русский; перевод: Alvakarp & WolteR [Sovet Romantica]
Код: Выделить всё
Format                      : Matroska
Format version              : Version 4 / Version 2
File size                   : 541 MiB
Duration                    : 23 min 40 s
Overall bit rate            : 3 198 kb/s
Encoded date                : UTC 2018-05-20 13:39:16
Writing application         : mkvmerge v23.0.0 ('The Bride Said No') 64-bit
Writing library             : libebml v1.3.6 + libmatroska v1.4.9
Video
ID                          : 1
Format                      : AVC
Format/Info                 : Advanced Video Codec
Format profile              : High@L4
Format settings             : CABAC / 4 Ref Frames
Format settings, CABAC      : Yes
Format settings, ReFrames   : 4 frames
Codec ID                    : V_MPEG4/ISO/AVC
Duration                    : 23 min 40 s
Bit rate                    : 3 072 kb/s
Width                       : 1 920 pixels
Height                      : 1 080 pixels
Display aspect ratio        : 16:9
Frame rate mode             : Variable
Frame rate                  : 23.976 (23976/1000) FPS
Color space                 : YUV
Chroma subsampling          : 4:2:0
Bit depth                   : 8 bits
Scan type                   : Progressive
Bits/(Pixel*Frame)          : 0.062
Stream size                 : 519 MiB (96%)
Writing library             : x264 core 120 r2120 0c7dab9
Encoding settings           : cabac=1 / ref=4 / deblock=1:1:1 / analyse=0x3:0x113 / me=umh / subme=8 / psy=1 / psy_rd=0.40:0.00 / mixed_ref=1 / me_range=16 / chroma_me=1 / trellis=1 / 8x8dct=1 / cqm=0 / deadzone=21,11 / fast_pskip=1 / chroma_qp_offset=-2 / threads=8 / sliced_threads=0 / nr=0 / decimate=1 / interlaced=0 / bluray_compat=0 / constrained_intra=0 / bframes=3 / b_pyramid=2 / b_adapt=2 / b_bias=0 / direct=3 / weightb=1 / open_gop=0 / weightp=2 / keyint=250 / keyint_min=23 / scenecut=40 / intra_refresh=0 / rc_lookahead=50 / rc=2pass / mbtree=1 / bitrate=3072 / ratetol=1.0 / qcomp=0.60 / qpmin=0 / qpmax=69 / qpstep=4 / cplxblur=20.0 / qblur=0.5 / vbv_maxrate=6144 / vbv_bufsize=15360 / nal_hrd=none / ip_ratio=1.40 / aq=1:0.60
Default                     : Yes
Forced                      : No
Audio
ID                          : 2
Format                      : AAC
Format/Info                 : Advanced Audio Codec
Format profile              : LC
Codec ID                    : A_AAC-2
Duration                    : 23 min 40 s
Bit rate                    : 128 kb/s
Channel(s)                  : 2 channels
Channel positions           : Front: L R
Sampling rate               : 44.1 kHz
Frame rate                  : 43.066 FPS (1024 SPF)
Compression mode            : Lossy
Stream size                 : 21.7 MiB (4%)
Language                    : Japanese
Default                     : Yes
Forced                      : No
от этой - разрешение 1080p
Эта раздача не обновляется 1,5 месяца. Судя по комментарию, релизер бросил раздачу.
1. Схватка отрядов
2. GGO
3. Письмо Фаната
4. Смертельная Игра
5. Предоставь остальное сражение мне!
6. Неудачник SAO
 
Не забывайте говорить Спасибо. Не уходите с раздачи!   
Торрент: Зарегистрирован [21 май 2018, 00:57] Для скачивания .torrent
необходима регистрация
Или скачать с помощью
MediaGet
Статус:
Проверен
 
.torrent скачан: 0 раз
Хэш: 1e18f41c1f7c2162b7c005da4bc42e11ac7cd510
Размер: 3.17 ГБ (3 406 692 667 байт)
Стать Автором раздачи
 
 
Раздал: 0 байт
Скачал: 0 байт
Ратио: Inf.
Сообщения: 487468
Зарегистрирован: 17 апр 2014, 13:57


  • Похожие торренты
    Ответы
    Просмотры
    Последнее сообщение

Вернуться в Аниме (HD и Blu-ray)

Ресурс не предоставляет электронные версии произведений, а занимается лишь коллекционированием и каталогизацией ссылок, присылаемых и публикуемых на форуме нашими читателями. Если вы являетесь правообладателем какого-либо представленного материала и не желаете чтобы ссылка на него находилась в нашем каталоге, свяжитесь с нами и мы незамедлительно удалим её. Файлы для обмена на трекере предоставлены пользователями сайта, и администрация не несёт ответственности за их содержание. Просьба не заливать файлы, защищенные авторскими правами, а также файлы нелегального содержания!
cron