Святитель (И. Вязовский) [2006, торжество Православия, DVDRip]

 
 Статистика раздачи 
Размер: 904.76 МБ   |  Зарегистрирован: 20 май 2018, 13:44   |   .torrent скачан: 0 раз
Сидеров: 1  [ 0 байт/сек ]     Личеров: 0  [ 0 байт/сек ]  
  

Святитель (И. Вязовский) [2006, торжество Православия, DVDRip]

Сообщение Nakazhu » 20 май 2018, 13:44

Святитель
Дата/Год выпуска: 2006
Страна
: Россия
Жанр: торжество Православия
Продолжительность: 01:07:44
Перевод: Не требуется
Русские субтитры: нет
Оригинальная аудиодорожка: русский
Режиссер: И. Вязовский
Описание: Документальный фильм о Стефании Пермском, просветителе земли Севера. Давно это было. А память живет, гудит в народе: как Стефан-монах сражался с прокудливой березой, сонмищем бесов, ей служивших...
Спеша в Москву и находясь в 10-ти верстах от обители Сергия Радонежского, святитель Стефан поклонился в сторону монастыря и проговорил: “Мир тебе, духовный брат мой!”...
Прп. Сергий встал из-за трапезы, помолился и сделав поклон на запад, тихо промолвил: “Радуйся и ты, пастырь Христова стада, и мир Божий да пребывает с тобою!”
Святой Стефан... Святитель, книжник-мудрец, монах-молитвенник.
“Яко овца посреди волк” вошел святитель в пределы Перми. Действовал он так решительно, безоглядно и смело, что сомнений не оставалось: монах Стефан был готов к мученическому концу.
качество: DVDRip
формат: AVI
Видео: MPEG4, XviD, 720x544 (4:3), 25.000 fps, 1 694 Kbps (0.173 bit/pixel)
Аудио: MP3, 48.0 KHz, 2 ch, 160 Kbps, CBR
Код: Выделить всё
General
Complete name                            : C:\Users\User\Downloads\Святитель.avi
Format                                   : AVI
Format/Info                              : Audio Video Interleave
File size                                : 905 MiB
Duration                                 : 1h 7mn
Overall bit rate                         : 1 867 Kbps
Video
ID                                       : 0
Format                                   : MPEG-4 Visual
Format profile                           : Advanced Simple@L5
Format settings, BVOP                    : 1
Format settings, QPel                    : No
Format settings, GMC                     : No warppoints
Format settings, Matrix                  : Default (H.263)
Codec ID                                 : XVID
Codec ID/Hint                            : XviD
Duration                                 : 1h 7mn
Bit rate                                 : 1 694 Kbps
Width                                    : 720 pixels
Height                                   : 544 pixels
Display aspect ratio                     : 4:3
Frame rate                               : 25.000 fps
Color space                              : YUV
Chroma subsampling                       : 4:2:0
Bit depth                                : 8 bits
Scan type                                : Progressive
Compression mode                         : Lossy
Bits/(Pixel*Frame)                       : 0.173
Stream size                              : 821 MiB (91%)
Writing library                          : XviD 63
Audio
ID                                       : 1
Format                                   : MPEG Audio
Format version                           : Version 1
Format profile                           : Layer 3
Mode                                     : Joint stereo
Mode extension                           : MS Stereo
Codec ID                                 : 55
Codec ID/Hint                            : MP3
Duration                                 : 1h 7mn
Bit rate mode                            : Constant
Bit rate                                 : 160 Kbps
Channel(s)                               : 2 channels
Sampling rate                            : 48.0 KHz
Compression mode                         : Lossy
Delay relative to video                  : 40ms
Stream size                              : 77.5 MiB (9%)
Alignment                                : Aligned on interleaves
Interleave, duration                     : 24 ms (0.60 video frame)
Interleave, preload duration             : 504 ms
Writing library                          : LAME3.99.3
 
Не забывайте говорить Спасибо. Не уходите с раздачи!   
Торрент: Зарегистрирован [20 май 2018, 13:44] Для скачивания .torrent
необходима регистрация
Или скачать с помощью
MediaGet
Статус:
Проверен
 
.torrent скачан: 0 раз
Хэш: 18626a28ea255a86f0f7c5d45f9d3b765f04a3f4
Размер: 904.76 МБ (948 708 700 байт)
Стать Автором раздачи
 
 
Раздал: 0 байт
Скачал: 0 байт
Ратио: Inf.
Сообщения: 487468
Зарегистрирован: 17 апр 2014, 13:57


  • Похожие торренты
    Ответы
    Просмотры
    Последнее сообщение

Вернуться в Вера и религия (видео)

Ресурс не предоставляет электронные версии произведений, а занимается лишь коллекционированием и каталогизацией ссылок, присылаемых и публикуемых на форуме нашими читателями. Если вы являетесь правообладателем какого-либо представленного материала и не желаете чтобы ссылка на него находилась в нашем каталоге, свяжитесь с нами и мы незамедлительно удалим её. Файлы для обмена на трекере предоставлены пользователями сайта, и администрация не несёт ответственности за их содержание. Просьба не заливать файлы, защищенные авторскими правами, а также файлы нелегального содержания!
cron