Анатолий Полотно - 12 Альбомов (1992 - 2018) [FLAC|Lossless|image + .cue]<Шансон, Авторская песня>

 
 Статистика раздачи 
Размер: 4.86 ГБ   |  Зарегистрирован: 19 май 2018, 15:17   |   .torrent скачан: 0 раз
Сидеров: 1  [ 0 байт/сек ]     Личеров: 0  [ 0 байт/сек ]  
  

Анатолий Полотно - 12 Альбомов (1992 - 2018) [FLAC|Lossless|image + .cue]<Шансон, Авторская песня>

Сообщение explosiveone » 19 май 2018, 15:17

Анатолий Полотно - 12 Альбомов (1992 - 2018)

Год: 1992-2018
Жанр: Шансон, Авторская песня
Источник (релизер): eloychik ®
Продолжительность: 11:42:48

Кодек: FLAC
Битрейт: Lossless
Тип рипа: image + .cue
#77Издание: Квадро диск KTL02-580
Продолжительность - 00:41:53
Треклист:
01. Баба Люба
02. Оп-она!
03. Бери её
04. Ай, Вай-Вай
05. Ялтинское танго
06. Колыма
07. Воровка на доверии
08. Будет всё
09. Фрегат
Код: выделить все
Exact Audio Copy V1.3 from 2. September 2016

Отчёт EAC об извлечении, выполненном 16. декабря 2017, 18:06

Анатолий Полотно / Баба Люба

Дисковод: ASUS    DRW-24D5MT   Adapter: 1  ID: 0

Режим чтения                 : Достоверность
Использование точного потока : Да
Отключение кэша аудио        : Да
Использование указателей C2  : Нет

Коррекция смещения при чтении                     : 6
Способность читать области Lead-in и Lead-out     : Нет
Заполнение пропущенных сэмплов тишиной            : Да
Удаление блоков с тишиной в начале и конце        : Нет
При вычислениях CRC использовались нулевые сэмплы : Да
Интерфейс                                         : Встроенный Win32-интерфейс для Win NT/2000

Выходной формат          : Пользовательский кодировщик
Выбранный битрейт        : 128 kBit/s
Качество                 : Высокий
Добавление ID3-тега      : Нет
Утилита сжатия           : C:\Program Files (x86)\Exact Audio Copy\Flac\flac.exe
Дополнительные параметры : -V -8 -T "Date=%year%" -T "Genre=%genre%" %source%

TOC извлечённого CD

     Трек |   Старт  | Длительность | Начальный сектор | Конечный сектор
    ---------------------------------------------------------------------
       1  |  0:00.00 |    3:56.03   |           0      |      17702
       2  |  3:56.03 |    4:01.31   |       17703      |      35808
       3  |  7:57.34 |    4:37.50   |       35809      |      56633
       4  | 12:35.09 |    5:30.19   |       56634      |      81402
       5  | 18:05.28 |    4:33.62   |       81403      |     101939
       6  | 22:39.15 |    4:37.06   |      101940      |     122720
       7  | 27:16.21 |    4:15.55   |      122721      |     141900
       8  | 31:32.01 |    6:07.05   |      141901      |     169430
       9  | 37:39.06 |    4:13.59   |      169431      |     188464

Характеристики диапазона извлечения и сообщения об ошибках

Выбранный диапазон

     Имя файла E:\Раздачи\NNMClub-eloychik ®\Анатолий Полотно - 10 aльбомов [nnm-club.me]\1992 - Баба Люба\Анатолий Полотно - Баба Люба.wav

     Пиковый уровень 100.0 %
     Скорость извлечения 3.0 X
     Качество диапазона 100.0 %
     CRC теста 05113FBD
     CRC копии 05113FBD
     Копирование... OK

Ошибок не произошло

AccurateRip: сводка

Трек  1  отсутствует в базе данных
Трек  2  отсутствует в базе данных
Трек  3  отсутствует в базе данных
Трек  4  отсутствует в базе данных
Трек  5  отсутствует в базе данных
Трек  6  отсутствует в базе данных
Трек  7  отсутствует в базе данных
Трек  8  отсутствует в базе данных
Трек  9  отсутствует в базе данных

Ни одного трека нет в базе AccurateRip

Конец отчёта

==== Контрольная сумма отчёта 89F91AA15A00CC9023465FD08BD0725145696617B73AA98446C7D13D02591BFE ====

Код: выделить все
REM GENRE Chanson
REM DATE 1992
REM DISCID 8409D009
REM COMMENT "ExactAudioCopy v1.3"
PERFORMER "Анатолий Полотно"
TITLE "Баба Люба"
REM COMPOSER ""
FILE "Анатолий Полотно - Баба Люба.flac" WAVE
  TRACK 01 AUDIO
    TITLE "Баба Люба"
    PERFORMER "Анатолий Полотно"
    REM COMPOSER ""
    INDEX 01 00:00:00
  TRACK 02 AUDIO
    TITLE "Оп-она!"
    PERFORMER "Анатолий Полотно"
    REM COMPOSER ""
    INDEX 00 03:54:30
    INDEX 01 03:56:03
  TRACK 03 AUDIO
    TITLE "Бери её"
    PERFORMER "Анатолий Полотно"
    REM COMPOSER ""
    INDEX 00 07:55:35
    INDEX 01 07:57:34
  TRACK 04 AUDIO
    TITLE "Ай, Вай-Вай"
    PERFORMER "Анатолий Полотно"
    REM COMPOSER ""
    INDEX 00 12:33:25
    INDEX 01 12:35:09
  TRACK 05 AUDIO
    TITLE "Ялтинское танго"
    PERFORMER "Анатолий Полотно"
    REM COMPOSER ""
    INDEX 00 18:03:13
    INDEX 01 18:05:28
  TRACK 06 AUDIO
    TITLE "Колыма"
    PERFORMER "Анатолий Полотно"
    REM COMPOSER ""
    INDEX 00 22:37:09
    INDEX 01 22:39:15
  TRACK 07 AUDIO
    TITLE "Воровка на доверии"
    PERFORMER "Анатолий Полотно"
    REM COMPOSER ""
    INDEX 00 27:14:24
    INDEX 01 27:16:21
  TRACK 08 AUDIO
    TITLE "Будет всё"
    PERFORMER "Анатолий Полотно"
    REM COMPOSER ""
    INDEX 00 31:30:04
    INDEX 01 31:32:01
  TRACK 09 AUDIO
    TITLE "Фрегат"
    PERFORMER "Анатолий Полотно"
    REM COMPOSER ""
    INDEX 00 37:37:23
    INDEX 01 37:39:06

Код: выделить все
-----------------------

DON'T MODIFY THIS FILE

-----------------------

PERFORMER: auCDtect Task Manager, ver. 1.6.0 RC1 build 1.6.0.1
Copyright (c) 2008-2010 y-soft. All rights reserved
http://y-soft.org

ANALYZER: auCDtect: CD records authenticity detector, version 0.8.2
Copyright (c) 2004 Oleg Berngardt. All rights reserved.
Copyright (c) 2004 Alexander Djourik. All rights reserved.

FILE: Анатолий Полотно - Баба Люба.flac
  Size: 273290119 Hash: D48BC857A9F4859D6C09EA2843AE17DE Accuracy: -m0
  Conclusion: MPEG 95%
  Signature: EAC95EDDF146F5546E8EDC7B6A82FC762CB150F0

#77Издание: POL009-95
Продолжительноcть -00:42:25
Треклиcт:
01. Букмекер
02. Чем дальше, тем ближе
03. Каланчевка
04. Вам кольцо с дорогим бриллиантом
05. Белая вьюга
06. Теплоход
07. Ветер осенний
08. Жизнь моя никчемная
09. Воспоминания о Ленинграде
10. Золотая карета
Код: выделить все
Exact Audio Copy V1.0 beta 3 from 29. August 2011

Отчёт EAC об извлечении, выполненном 17. ноября 2016, 11:32

Анатолий Полотно / Золотая карета

Дисковод: ASUS    DRW-24B3ST   Adapter: 3  ID: 0

Режим чтения                 : Достоверность
Использование точного потока : Да
Отключение кэша аудио        : Да
Использование указателей C2  : Нет

Коррекция смещения при чтении                     : 6
Способность читать области Lead-in и Lead-out     : Нет
Заполнение пропущенных сэмплов тишиной            : Да
Удаление блоков с тишиной в начале и конце        : Нет
При вычислениях CRC использовались нулевые сэмплы : Да
Интерфейс                                         : Встроенный Win32-интерфейс для Win NT/2000

Выходной формат          : Пользовательский кодировщик
Выбранный битрейт        : 128 kBit/s
Качество                 : Высокий
Добавление ID3-тега      : Нет
Утилита сжатия           : C:\Program Files (x86)\Exact Audio Copy\Flac\flac.exe
Дополнительные параметры :  -V -8 -T "Date=%year%" -T "Genre=%genre%" %source%

TOC извлечённого CD

     Трек |   Старт  | Длительность | Начальный сектор | Конечный сектор
    ---------------------------------------------------------------------
       1  |  0:00.10 |    3:39.65   |          10      |      16499
       2  |  3:40.00 |    3:54.45   |       16500      |      34094
       3  |  7:34.45 |    4:17.35   |       34095      |      53404
       4  | 11:52.05 |    4:02.65   |       53405      |      71619
       5  | 15:54.70 |    5:15.67   |       71620      |      95311
       6  | 21:10.62 |    3:51.03   |       95312      |     112639
       7  | 25:01.65 |    4:26.67   |      112640      |     132656
       8  | 29:28.57 |    3:56.40   |      132657      |     150396
       9  | 33:25.22 |    4:10.15   |      150397      |     169161
      10  | 37:35.37 |    4:49.25   |      169162      |     190861

Характеристики диапазона извлечения и сообщения об ошибках

Выбранный диапазон

     Имя файла E:\РАЗДАЧИ\NNMClub-eloychik ®\Анатолий Полотно - 3 Альбома [NNMClub.to]\1995 - Золотая карета\Анатолий Полотно - Золотая карета.wav

     Пиковый уровень 99.7 %
     Скорость извлечения 2.3 X
     Качество диапазона 99.9 %
     CRC теста E1161445
     CRC копии E1161445
     Копирование... OK

Ошибок не произошло

AccurateRip: сводка

Трек  1  : извлечено точно (доверие 1)  [6C8292CF]  (AR v1)
Трек  2  : извлечено точно (доверие 1)  [8989E36B]  (AR v1)
Трек  3  : извлечено точно (доверие 1)  [FBDE187A]  (AR v1)
Трек  4  : извлечено точно (доверие 1)  [2F7E3761]  (AR v1)
Трек  5  : извлечено точно (доверие 1)  [1D1C4AD9]  (AR v1)
Трек  6  : извлечено точно (доверие 1)  [E9E360EF]  (AR v1)
Трек  7  : извлечено точно (доверие 1)  [6FB41D4C]  (AR v1)
Трек  8  : извлечено точно (доверие 1)  [B48E754F]  (AR v1)
Трек  9  : извлечено точно (доверие 1)  [7AD7F924]  (AR v1)
Трек 10  : извлечено точно (доверие 1)  [B3B474B0]  (AR v1)

Все треки извлечены точно

Конец отчёта

==== Контрольная сумма отчёта 4E56F262A5FA7457472592F0FB5898DD82CA4B9DF03D7165B32F3B1B561872D3 ====
Код: выделить все
REM GENRE Chanson
REM DATE 1995
REM DISCID 7409F00A
REM COMMENT "ExactAudioCopy v1.0b3"
PERFORMER "Анатолий Полотно"
TITLE "Золотая карета"
FILE "Анатолий Полотно - Золотая карета.flac" WAVE
  TRACK 01 AUDIO
    TITLE "Букмекер"
    PERFORMER "Анатолий Полотно"
    INDEX 00 00:00:00
    INDEX 01 00:00:10
  TRACK 02 AUDIO
    TITLE "Чем дальше, тем ближе..."
    PERFORMER "Анатолий Полотно"
    INDEX 00 03:37:45
    INDEX 01 03:40:00
  TRACK 03 AUDIO
    TITLE "Каланчевка"
    PERFORMER "Анатолий Полотно"
    INDEX 00 07:32:15
    INDEX 01 07:34:45
  TRACK 04 AUDIO
    TITLE "Вам кольцо с дорогим бриллиантом..."
    PERFORMER "Анатолий Полотно"
    INDEX 00 11:49:50
    INDEX 01 11:52:05
  TRACK 05 AUDIO
    TITLE "Белая вьюга"
    PERFORMER "Анатолий Полотно"
    INDEX 00 15:52:40
    INDEX 01 15:54:70
  TRACK 06 AUDIO
    TITLE "Теплоход"
    PERFORMER "Анатолий Полотно"
    INDEX 00 21:08:32
    INDEX 01 21:10:62
  TRACK 07 AUDIO
    TITLE "Ветер осенний "
    PERFORMER "Анатолий Полотно"
    INDEX 00 24:59:35
    INDEX 01 25:01:65
  TRACK 08 AUDIO
    TITLE "Жизнь моя никчемная"
    PERFORMER "Анатолий Полотно"
    INDEX 00 29:26:27
    INDEX 01 29:28:57
  TRACK 09 AUDIO
    TITLE "Воспоминания о Ленинграде"
    PERFORMER "Анатолий Полотно"
    INDEX 00 33:22:67
    INDEX 01 33:25:22
  TRACK 10 AUDIO
    TITLE "Золотая карета"
    PERFORMER "Анатолий Полотно"
    INDEX 00 37:33:07
    INDEX 01 37:35:37

Код: выделить все
-----------------------

DON'T MODIFY THIS FILE

-----------------------

PERFORMER: auCDtect Task Manager, ver. 1.6.0 RC1 build 1.6.0.1
Copyright (c) 2008-2010 y-soft. All rights reserved
http://y-soft.org

ANALYZER: auCDtect: CD records authenticity detector, version 0.8.2
Copyright (c) 2004 Oleg Berngardt. All rights reserved.
Copyright (c) 2004 Alexander Djourik. All rights reserved.

FILE: Анатолий Полотно - Золотая карета.flac
  Size: 275632508 Hash: 2DD481DBAE097E6C88F2958302DC883B Accuracy: -m0
  Conclusion: CDDA 100%
  Signature: FA3C69945C090884208F9AFBDA94A14D026C8C5C

#77Издание: RONEeS RCD-010|RS 558
Продолжительность - 00:46:14
Треклист:
01. Переживём 3:27
02. Таёжная дорога 3:35
03. Одесский разговор 4:21
04. Про нас с Федькой Кармановым 3:35
05. Статуя Свободы 3:25
06. Физкульт привет! 3:46
07. Жестокое танго 5:16
08. Сказка о рыбаке и рыбке 5:56
09. Цыганская рапсодия 3:59
10. Только ты... 4:45
11. Суета 4:08
Код: выделить все
Exact Audio Copy V1.3 from 2. September 2016

Отчёт EAC об извлечении, выполненном 22. сентября 2017, 15:04

Анатолий Полотно / Переживём

Дисковод: ASUS    DRW-24B3ST   Adapter: 1  ID: 0

Режим чтения                 : Достоверность
Использование точного потока : Да
Отключение кэша аудио        : Да
Использование указателей C2  : Нет

Коррекция смещения при чтении                     : 6
Способность читать области Lead-in и Lead-out     : Нет
Заполнение пропущенных сэмплов тишиной            : Да
Удаление блоков с тишиной в начале и конце        : Нет
При вычислениях CRC использовались нулевые сэмплы : Да
Интерфейс                                         : Встроенный Win32-интерфейс для Win NT/2000

Выходной формат          : Пользовательский кодировщик
Выбранный битрейт        : 128 kBit/s
Качество                 : Высокий
Добавление ID3-тега      : Нет
Утилита сжатия           : C:\Program Files (x86)\Exact Audio Copy\Flac\flac.exe
Дополнительные параметры : -V -8 -T "Date=%year%" -T "Genre=%genre%" %source%

TOC извлечённого CD

     Трек |   Старт  | Длительность | Начальный сектор | Конечный сектор
    ---------------------------------------------------------------------
       1  |  0:00.00 |    3:26.66   |           0      |      15515
       2  |  3:26.66 |    3:35.17   |       15516      |      31657
       3  |  7:02.08 |    4:21.33   |       31658      |      51265
       4  | 11:23.41 |    3:34.65   |       51266      |      67380
       5  | 14:58.31 |    3:24.65   |       67381      |      82745
       6  | 18:23.21 |    3:45.65   |       82746      |      99685
       7  | 22:09.11 |    5:15.61   |       99686      |     123371
       8  | 27:24.72 |    5:56.37   |      123372      |     150108
       9  | 33:21.34 |    3:58.69   |      150109      |     168027
      10  | 37:20.28 |    4:45.08   |      168028      |     189410
      11  | 42:05.36 |    4:07.56   |      189411      |     207991

Характеристики диапазона извлечения и сообщения об ошибках

Выбранный диапазон

     Имя файла E:\Раздачи\NNMClub-eloychik ®\Анатолий Полотно - 6 aльбомов [nnm-club.me]\1999 - Переживём\Анатолий Полотно - Переживём.wav

     Пиковый уровень 100.0 %
     Скорость извлечения 5.4 X
     Качество диапазона 99.9 %
     CRC теста D93AF10B
     CRC копии D93AF10B
     Копирование... OK

Ошибок не произошло

AccurateRip: сводка

Трек  1  : извлечено точно (доверие 1)  [0885494F]  (AR v1)
Трек  2  : извлечено точно (доверие 1)  [08D67B0C]  (AR v1)
Трек  3  : извлечено точно (доверие 1)  [94FD4BF2]  (AR v1)
Трек  4  : извлечено точно (доверие 1)  [274897B0]  (AR v1)
Трек  5  : извлечено точно (доверие 1)  [D0D5F6FE]  (AR v1)
Трек  6  : извлечено точно (доверие 1)  [D4114C6A]  (AR v1)
Трек  7  : извлечено точно (доверие 1)  [6323C38C]  (AR v1)
Трек  8  : извлечено точно (доверие 1)  [9E305716]  (AR v1)
Трек  9  : извлечено точно (доверие 1)  [4D2B6028]  (AR v1)
Трек 10  : извлечено точно (доверие 1)  [7634C390]  (AR v1)
Трек 11  : извлечено точно (доверие 1)  [FF49D3EA]  (AR v1)

Все треки извлечены точно

Конец отчёта

==== Контрольная сумма отчёта C976E5AD36C3298FD356EADE611E794D9C1E464DE00400A3F0ACA5EBB63DA1B2 ====

Код: выделить все
REM GENRE Chanson
REM DATE 1999
REM DISCID 710AD50B
REM COMMENT "ExactAudioCopy v1.3"
PERFORMER "Анатолий Полотно"
TITLE "Переживём"
REM COMPOSER ""
FILE "Анатолий Полотно - Переживём.flac" WAVE
  TRACK 01 AUDIO
    TITLE "Переживём"
    PERFORMER "Анатолий Полотно"
    REM COMPOSER ""
    INDEX 01 00:00:00
  TRACK 02 AUDIO
    TITLE "Таежная дорога"
    PERFORMER "Анатолий Полотно"
    REM COMPOSER ""
    INDEX 00 03:24:66
    INDEX 01 03:26:66
  TRACK 03 AUDIO
    TITLE "Одесский разговор"
    PERFORMER "Анатолий Полотно"
    REM COMPOSER ""
    INDEX 00 07:00:08
    INDEX 01 07:02:08
  TRACK 04 AUDIO
    TITLE "Про нас с Федькой Кармановым"
    PERFORMER "Анатолий Полотно"
    REM COMPOSER ""
    INDEX 00 11:21:41
    INDEX 01 11:23:41
  TRACK 05 AUDIO
    TITLE "Статуя свободы"
    PERFORMER "Анатолий Полотно"
    REM COMPOSER ""
    INDEX 00 14:56:31
    INDEX 01 14:58:31
  TRACK 06 AUDIO
    TITLE "Физкульт привет!"
    PERFORMER "Анатолий Полотно"
    REM COMPOSER ""
    INDEX 00 18:21:21
    INDEX 01 18:23:21
  TRACK 07 AUDIO
    TITLE "Жестокое танго"
    PERFORMER "Анатолий Полотно"
    REM COMPOSER ""
    INDEX 00 22:07:11
    INDEX 01 22:09:11
  TRACK 08 AUDIO
    TITLE "Сказка о рыбаке и рыбке"
    PERFORMER "Анатолий Полотно"
    REM COMPOSER ""
    INDEX 00 27:22:72
    INDEX 01 27:24:72
  TRACK 09 AUDIO
    TITLE "Цыганская рапсодия"
    PERFORMER "Анатолий Полотно"
    REM COMPOSER ""
    INDEX 00 33:19:34
    INDEX 01 33:21:34
  TRACK 10 AUDIO
    TITLE "Только ты..."
    PERFORMER "Анатолий Полотно"
    REM COMPOSER ""
    INDEX 00 37:18:28
    INDEX 01 37:20:28
  TRACK 11 AUDIO
    TITLE "Суета"
    PERFORMER "Анатолий Полотно"
    REM COMPOSER ""
    INDEX 00 42:03:36
    INDEX 01 42:05:36

Код: выделить все
-----------------------

DON'T MODIFY THIS FILE

-----------------------

PERFORMER: auCDtect Task Manager, ver. 1.6.0 RC1 build 1.6.0.1
Copyright (c) 2008-2010 y-soft. All rights reserved
http://y-soft.org

ANALYZER: auCDtect: CD records authenticity detector, version 0.8.2
Copyright (c) 2004 Oleg Berngardt. All rights reserved.
Copyright (c) 2004 Alexander Djourik. All rights reserved.

FILE: Анатолий Полотно - Переживём.flac
  Size: 312870971 Hash: C362D22BF23BDE26C43A461A14D7BB34 Accuracy: -m0
  Conclusion: CDDA 100%
  Signature: 5FC992F0D815DCA9D49EF10130656B97FDC0FBD2

#77Издание: CC CD 08/08
Продолжительноcть - 01:03:21
Треклиcт:
01. Против ветра
02. Маза
03. Ксивки
04. Кушайте
05. Купола
06. Степь
07. Корабли
08. Лесовоз
09. Пока
10. Заочница
11. Уверлей
12. Я надену кепку и уйду ...
Код: выделить все
Exact Audio Copy V1.0 beta 3 from 29. August 2011

Отчёт EAC об извлечении, выполненном 17. ноября 2016, 10:07

Анатолий Полотно / Против ветра

Дисковод: ASUS    DRW-24B3ST   Adapter: 3  ID: 0

Режим чтения                 : Достоверность
Использование точного потока : Да
Отключение кэша аудио        : Да
Использование указателей C2  : Нет

Коррекция смещения при чтении                     : 6
Способность читать области Lead-in и Lead-out     : Нет
Заполнение пропущенных сэмплов тишиной            : Да
Удаление блоков с тишиной в начале и конце        : Нет
При вычислениях CRC использовались нулевые сэмплы : Да
Интерфейс                                         : Встроенный Win32-интерфейс для Win NT/2000

Выходной формат          : Пользовательский кодировщик
Выбранный битрейт        : 128 kBit/s
Качество                 : Высокий
Добавление ID3-тега      : Нет
Утилита сжатия           : C:\Program Files (x86)\Exact Audio Copy\Flac\flac.exe
Дополнительные параметры :  -V -8 -T "Date=%year%" -T "Genre=%genre%" %source%

TOC извлечённого CD

     Трек |   Старт  | Длительность | Начальный сектор | Конечный сектор
    ---------------------------------------------------------------------
       1  |  0:00.00 |    6:11.30   |           0      |      27854
       2  |  6:11.30 |    6:26.38   |       27855      |      56842
       3  | 12:37.68 |    4:18.00   |       56843      |      76192
       4  | 16:55.68 |    3:34.38   |       76193      |      92280
       5  | 20:30.31 |    5:06.38   |       92281      |     115268
       6  | 25:36.69 |    5:28.00   |      115269      |     139868
       7  | 31:04.69 |    6:57.38   |      139869      |     171181
       8  | 38:02.32 |    5:08.00   |      171182      |     194281
       9  | 43:10.32 |    5:08.66   |      194282      |     217447
      10  | 48:19.23 |    4:24.66   |      217448      |     237313
      11  | 52:44.14 |    4:58.00   |      237314      |     259663
      12  | 57:42.14 |    5:38.01   |      259664      |     285014

Характеристики диапазона извлечения и сообщения об ошибках

Выбранный диапазон

     Имя файла E:\РАЗДАЧИ\NNMClub-eloychik ®\Анатолий Полотно - 3 Альбома [NNMClub.to]\2001 - Против ветра\Анатолий Полотно - Против ветра.wav

     Пиковый уровень 100.0 %
     Скорость извлечения 6.5 X
     Качество диапазона 100.0 %
     CRC теста A9238DFB
     CRC копии A9238DFB
     Копирование... OK

Ошибок не произошло

AccurateRip: сводка

Трек  1  : извлечено точно (доверие 1)  [B3F01A65]  (AR v2)
Трек  2  : извлечено точно (доверие 1)  [EDCA8D48]  (AR v2)
Трек  3  : извлечено точно (доверие 1)  [A9F82AD9]  (AR v2)
Трек  4  : извлечено точно (доверие 1)  [6537BDE3]  (AR v2)
Трек  5  : извлечено точно (доверие 1)  [04E016F6]  (AR v2)
Трек  6  : извлечено точно (доверие 1)  [643F4EB0]  (AR v2)
Трек  7  : извлечено точно (доверие 1)  [6CE361BC]  (AR v2)
Трек  8  : извлечено точно (доверие 1)  [867E407E]  (AR v2)
Трек  9  : извлечено точно (доверие 1)  [628960F3]  (AR v2)
Трек 10  : извлечено точно (доверие 1)  [4E760385]  (AR v2)
Трек 11  : извлечено точно (доверие 1)  [2AC09E39]  (AR v2)
Трек 12  : извлечено точно (доверие 1)  [437C5B0D]  (AR v2)

Все треки извлечены точно

Конец отчёта

==== Контрольная сумма отчёта 3B6649E4BB424A1A118EC47FC53826FEA944C6AE2B2960C0FD0DD6F55232CE01 ====
Код: выделить все
REM GENRE Chanson
REM DATE 2008
REM DISCID AA0ED80C
REM COMMENT "ExactAudioCopy v1.0b3"
PERFORMER "Анатолий Полотно"
TITLE "Против ветра"
FILE "Анатолий Полотно - Против ветра.flac" WAVE
  TRACK 01 AUDIO
    TITLE "Против ветра"
    PERFORMER "Анатолий Полотно"
    INDEX 01 00:00:00
  TRACK 02 AUDIO
    TITLE "Маза"
    PERFORMER "Анатолий Полотно"
    INDEX 00 06:09:30
    INDEX 01 06:11:30
  TRACK 03 AUDIO
    TITLE "Ксивки"
    PERFORMER "Анатолий Полотно"
    INDEX 00 12:35:68
    INDEX 01 12:37:68
  TRACK 04 AUDIO
    TITLE "Кушайте"
    PERFORMER "Анатолий Полотно"
    INDEX 00 16:53:68
    INDEX 01 16:55:68
  TRACK 05 AUDIO
    TITLE "Купола"
    PERFORMER "Анатолий Полотно"
    INDEX 00 20:28:31
    INDEX 01 20:30:31
  TRACK 06 AUDIO
    TITLE "Степь"
    PERFORMER "Анатолий Полотно"
    INDEX 00 25:34:69
    INDEX 01 25:36:69
  TRACK 07 AUDIO
    TITLE "Корабли"
    PERFORMER "Анатолий Полотно"
    INDEX 00 31:02:69
    INDEX 01 31:04:69
  TRACK 08 AUDIO
    TITLE "Лесовоз"
    PERFORMER "Анатолий Полотно"
    INDEX 00 38:00:32
    INDEX 01 38:02:32
  TRACK 09 AUDIO
    TITLE "Пока"
    PERFORMER "Анатолий Полотно"
    INDEX 00 43:08:32
    INDEX 01 43:10:32
  TRACK 10 AUDIO
    TITLE "Заочница"
    PERFORMER "Анатолий Полотно"
    INDEX 00 48:17:23
    INDEX 01 48:19:23
  TRACK 11 AUDIO
    TITLE "Уверлей"
    PERFORMER "Анатолий Полотно"
    INDEX 00 52:42:14
    INDEX 01 52:44:14
  TRACK 12 AUDIO
    TITLE "Я надену кепку и уйду..."
    PERFORMER "Анатолий Полотно"
    INDEX 00 57:40:14
    INDEX 01 57:42:14
Код: выделить все
-----------------------

DON'T MODIFY THIS FILE

-----------------------

PERFORMER: auCDtect Task Manager, ver. 1.6.0 RC1 build 1.6.0.1
Copyright (c) 2008-2010 y-soft. All rights reserved
http://y-soft.org

ANALYZER: auCDtect: CD records authenticity detector, version 0.8.2
Copyright (c) 2004 Oleg Berngardt. All rights reserved.
Copyright (c) 2004 Alexander Djourik. All rights reserved.

FILE: Анатолий Полотно - Против ветра.flac
  Size: 471483973 Hash: 1D53D77505CC845280659181C8FBE3EC Accuracy: -m0
  Conclusion: CDDA 100%
  Signature: ABC8D331AAE004B2776B53117CC10E96FD8A17BD

#77Издание: KTL04-898
Продолжительноcть - 01:01:55
Треклиcт:
01. Шпана фартовая
02. Зашибись
03. Василёк
04. За перевал
05. Мама
06. Капель
07. Разгуляй
08. Запендя
09. Ещё вчера
10. Прямо сейчас
11. Вон оно как...
12. Недотыкомки
Код: выделить все
Exact Audio Copy V1.0 beta 3 from 29. August 2011

Отчёт EAC об извлечении, выполненном 17. ноября 2016, 10:46

Анатолий Полотно / Шпана фартовая

Дисковод: ASUS    DRW-24B3ST   Adapter: 3  ID: 0

Режим чтения                 : Достоверность
Использование точного потока : Да
Отключение кэша аудио        : Да
Использование указателей C2  : Нет

Коррекция смещения при чтении                     : 6
Способность читать области Lead-in и Lead-out     : Нет
Заполнение пропущенных сэмплов тишиной            : Да
Удаление блоков с тишиной в начале и конце        : Нет
При вычислениях CRC использовались нулевые сэмплы : Да
Интерфейс                                         : Встроенный Win32-интерфейс для Win NT/2000

Выходной формат          : Пользовательский кодировщик
Выбранный битрейт        : 128 kBit/s
Качество                 : Высокий
Добавление ID3-тега      : Нет
Утилита сжатия           : C:\Program Files (x86)\Exact Audio Copy\Flac\flac.exe
Дополнительные параметры :  -V -8 -T "Date=%year%" -T "Genre=%genre%" %source%

TOC извлечённого CD

     Трек |   Старт  | Длительность | Начальный сектор | Конечный сектор
    ---------------------------------------------------------------------
       1  |  0:00.00 |    4:39.28   |           0      |      20952
       2  |  4:39.28 |    4:31.53   |       20953      |      41330
       3  |  9:11.06 |    4:44.05   |       41331      |      62635
       4  | 13:55.11 |    7:48.58   |       62636      |      97793
       5  | 21:43.69 |    4:30.27   |       97794      |     118070
       6  | 26:14.21 |    4:22.14   |      118071      |     137734
       7  | 30:36.35 |    3:24.01   |      137735      |     153035
       8  | 34:00.36 |    5:13.36   |      153036      |     176546
       9  | 39:13.72 |    4:55.24   |      176547      |     198695
      10  | 44:09.21 |    5:00.05   |      198696      |     221200
      11  | 49:09.26 |    7:12.20   |      221201      |     253620
      12  | 56:21.46 |    5:32.43   |      253621      |     278563

Характеристики диапазона извлечения и сообщения об ошибках

Выбранный диапазон

     Имя файла E:\РАЗДАЧИ\NNMClub-eloychik ®\Анатолий Полотно - 3 Альбома [NNMClub.to]\2004 - Шпана фартовая\Анатолий Полотно - Шпана фартовая.wav

     Пиковый уровень 98.8 %
     Скорость извлечения 6.3 X
     Качество диапазона 100.0 %
     CRC теста 249C173E
     CRC копии 249C173E
     Копирование... OK

Ошибок не произошло

AccurateRip: сводка

Трек  1  отсутствует в базе данных
Трек  2  отсутствует в базе данных
Трек  3  отсутствует в базе данных
Трек  4  отсутствует в базе данных
Трек  5  отсутствует в базе данных
Трек  6  отсутствует в базе данных
Трек  7  отсутствует в базе данных
Трек  8  отсутствует в базе данных
Трек  9  отсутствует в базе данных
Трек 10  отсутствует в базе данных
Трек 11  отсутствует в базе данных
Трек 12  отсутствует в базе данных

Ни одного трека нет в базе AccurateRip

Конец отчёта

==== Контрольная сумма отчёта 2CEE92B5CA1848F7FE1B1745A51BD96F81771CDD8FB034D5BCB5CED869E1CC98 ====
Код: выделить все
REM GENRE Chanson
REM DATE 2004
REM DISCID A30E820C
REM COMMENT "ExactAudioCopy v1.0b3"
PERFORMER "Анатолий Полотно"
TITLE "Шпана фартовая"
FILE "Анатолий Полотно - Шпана фартовая.flac" WAVE
  TRACK 01 AUDIO
    TITLE "Шпана фартовая"
    PERFORMER "Анатолий Полотно"
    INDEX 01 00:00:00
  TRACK 02 AUDIO
    TITLE "Зашибись"
    PERFORMER "Анатолий Полотно"
    INDEX 00 04:37:28
    INDEX 01 04:39:28
  TRACK 03 AUDIO
    TITLE "Василек "
    PERFORMER "Анатолий Полотно"
    INDEX 00 09:09:06
    INDEX 01 09:11:06
  TRACK 04 AUDIO
    TITLE "За перевал"
    PERFORMER "Анатолий Полотно"
    INDEX 00 13:53:11
    INDEX 01 13:55:11
  TRACK 05 AUDIO
    TITLE "Мама"
    PERFORMER "Анатолий Полотно"
    INDEX 00 21:41:69
    INDEX 01 21:43:69
  TRACK 06 AUDIO
    TITLE "Капель"
    PERFORMER "Анатолий Полотно"
    INDEX 00 26:12:21
    INDEX 01 26:14:21
  TRACK 07 AUDIO
    TITLE "Разгуляй"
    PERFORMER "Анатолий Полотно"
    INDEX 00 30:34:35
    INDEX 01 30:36:35
  TRACK 08 AUDIO
    TITLE " Запендя"
    PERFORMER "Анатолий Полотно"
    INDEX 00 33:58:36
    INDEX 01 34:00:36
  TRACK 09 AUDIO
    TITLE "Еще вчера"
    PERFORMER "Анатолий Полотно"
    INDEX 00 39:11:72
    INDEX 01 39:13:72
  TRACK 10 AUDIO
    TITLE "Прямо сейчас"
    PERFORMER "Анатолий Полотно"
    INDEX 00 44:07:21
    INDEX 01 44:09:21
  TRACK 11 AUDIO
    TITLE "Вон оно как..."
    PERFORMER "Анатолий Полотно"
    INDEX 00 49:07:26
    INDEX 01 49:09:26
  TRACK 12 AUDIO
    TITLE "Недотыкомки"
    PERFORMER "Анатолий Полотно"
    INDEX 00 56:19:46
    INDEX 01 56:21:46

Код: выделить все
-----------------------

DON'T MODIFY THIS FILE

-----------------------

PERFORMER: auCDtect Task Manager, ver. 1.6.0 RC1 build 1.6.0.1
Copyright (c) 2008-2010 y-soft. All rights reserved
http://y-soft.org

ANALYZER: auCDtect: CD records authenticity detector, version 0.8.2
Copyright (c) 2004 Oleg Berngardt. All rights reserved.
Copyright (c) 2004 Alexander Djourik. All rights reserved.

FILE: Анатолий Полотно - Шпана фартовая.flac
  Size: 420104332 Hash: 639BB50B5E020E7D6FDBBADED94A778B Accuracy: -m0
  Conclusion: CDDA 100%
  Signature: 8BFE7406EE4A932F43FF76023C871099FC15B230

#77Издание: RMG 147-2
Продолжительность - 00:50:15
Треклист:
01. Таёжная дорога
02. Одесский разговор
03. Про нас с Федькой (Кармановым)
04. Физкультпривет
05. Суета
06. Только ты
07. Сказка о рыбаке и рыбке
08. Жестокое танго
09. Переживём (3:26)
10. Цыганская рапсодия
11. Статуя свободы
12. Пароход (Таёжная дорога XXI)
Код: выделить все
Exact Audio Copy V1.3 from 2. September 2016

Отчёт EAC об извлечении, выполненном 9. ноября 2017, 15:26

Анатолий Полотно / Пароход

Дисковод: ASUS    DRW-24D5MT   Adapter: 1  ID: 0

Режим чтения                 : Достоверность
Использование точного потока : Да
Отключение кэша аудио        : Да
Использование указателей C2  : Нет

Коррекция смещения при чтении                     : 6
Способность читать области Lead-in и Lead-out     : Нет
Заполнение пропущенных сэмплов тишиной            : Да
Удаление блоков с тишиной в начале и конце        : Нет
При вычислениях CRC использовались нулевые сэмплы : Да
Интерфейс                                         : Встроенный Win32-интерфейс для Win NT/2000

Выходной формат          : Пользовательский кодировщик
Выбранный битрейт        : 128 kBit/s
Качество                 : Высокий
Добавление ID3-тега      : Нет
Утилита сжатия           : C:\Program Files (x86)\Exact Audio Copy\Flac\flac.exe
Дополнительные параметры : -V -8 -T "Date=%year%" -T "Genre=%genre%" %source%

TOC извлечённого CD

     Трек |   Старт  | Длительность | Начальный сектор | Конечный сектор
    ---------------------------------------------------------------------
       1  |  0:00.00 |    3:34.24   |           0      |      16073
       2  |  3:34.24 |    4:20.35   |       16074      |      35608
       3  |  7:54.59 |    3:31.41   |       35609      |      51474
       4  | 11:26.25 |    3:44.00   |       51475      |      68274
       5  | 15:10.25 |    4:11.18   |       68275      |      87117
       6  | 19:21.43 |    4:44.35   |       87118      |     108452
       7  | 24:06.03 |    5:54.47   |      108453      |     135049
       8  | 30:00.50 |    5:25.06   |      135050      |     159430
       9  | 35:25.56 |    3:25.41   |      159431      |     174846
      10  | 38:51.22 |    3:56.70   |      174847      |     192616
      11  | 42:48.17 |    3:17.52   |      192617      |     207443
      12  | 46:05.69 |    4:08.24   |      207444      |     226067

Характеристики диапазона извлечения и сообщения об ошибках

Выбранный диапазон

     Имя файла E:\Раздачи\NNMClub-eloychik ®\Анатолий Полотно - 6 aльбомов [nnm-club.me]\2004 - Пароход\Анатолий Полотно - Пароход.wav

     Пиковый уровень 99.9 %
     Скорость извлечения 2.9 X
     Качество диапазона 99.9 %
     CRC теста 90325C98
     CRC копии 90325C98
     Копирование... OK

Ошибок не произошло

AccurateRip: сводка

Трек  1  точность не определена (достоверность 1)  [86F38703], AccurateRip вернул [7E4C46D6]  (AR v2)
Трек  2  точность не определена (достоверность 1)  [C03906C8], AccurateRip вернул [DB6D9090]  (AR v2)
Трек  3  точность не определена (достоверность 1)  [3791FD28], AccurateRip вернул [FD3A2B03]  (AR v2)
Трек  4  точность не определена (достоверность 1)  [B49E46F0], AccurateRip вернул [EE00233E]  (AR v2)
Трек  5  точность не определена (достоверность 1)  [E9A44566], AccurateRip вернул [B37B6FAF]  (AR v2)
Трек  6  точность не определена (достоверность 1)  [F44FB830], AccurateRip вернул [CE981E9D]  (AR v2)
Трек  7  точность не определена (достоверность 1)  [A21153EF], AccurateRip вернул [8EB309C7]  (AR v2)
Трек  8  точность не определена (достоверность 1)  [E36E0999], AccurateRip вернул [4548F333]  (AR v2)
Трек  9  точность не определена (достоверность 1)  [91CB8FE9], AccurateRip вернул [9223FD8A]  (AR v2)
Трек 10  точность не определена (достоверность 1)  [120DB964], AccurateRip вернул [C8D771BA]  (AR v2)
Трек 11  точность не определена (достоверность 1)  [BED1D576], AccurateRip вернул [DA24AF3B]  (AR v2)
Трек 12  точность не определена (достоверность 1)  [4EF922BE], AccurateRip вернул [77901B63]  (AR v2)

Ни один трек не прошёл проверки на точность
В вашей базе может быть иной вариант штамповки диска

Конец отчёта

==== Контрольная сумма отчёта 05F24BA720D71107CB435D5B6F2D008CE19A5482AA976EDB945CA082A491FD85 ====

Код: выделить все
REM GENRE Chanson
REM DATE 2004
REM DISCID A00BC60C
REM COMMENT "ExactAudioCopy v1.3"
PERFORMER "Анатолий Полотно"
TITLE "Пароход"
REM COMPOSER ""
FILE "Анатолий Полотно - Пароход.flac" WAVE
  TRACK 01 AUDIO
    TITLE "Таёжная дорога"
    PERFORMER "Анатолий Полотно"
    REM COMPOSER ""
    INDEX 01 00:00:00
  TRACK 02 AUDIO
    TITLE "Одесский разговор "
    PERFORMER "Анатолий Полотно"
    REM COMPOSER ""
    INDEX 01 03:34:24
  TRACK 03 AUDIO
    TITLE "Про нас с Федькой (Кармановым)"
    PERFORMER "Анатолий Полотно"
    REM COMPOSER ""
    INDEX 01 07:54:59
  TRACK 04 AUDIO
    TITLE "Физкультпривет"
    PERFORMER "Анатолий Полотно"
    REM COMPOSER ""
    INDEX 01 11:26:25
  TRACK 05 AUDIO
    TITLE "Суета"
    PERFORMER "Анатолий Полотно"
    REM COMPOSER ""
    INDEX 01 15:10:25
  TRACK 06 AUDIO
    TITLE "Только ты"
    PERFORMER "Анатолий Полотно"
    REM COMPOSER ""
    INDEX 01 19:21:43
  TRACK 07 AUDIO
    TITLE "Сказка о рыбаке и рыбке"
    PERFORMER "Анатолий Полотно"
    REM COMPOSER ""
    INDEX 01 24:06:03
  TRACK 08 AUDIO
    TITLE "Жестокое танго"
    PERFORMER "Анатолий Полотно"
    REM COMPOSER ""
    INDEX 01 30:00:50
  TRACK 09 AUDIO
    TITLE "Переживём"
    PERFORMER "Анатолий Полотно"
    REM COMPOSER ""
    INDEX 01 35:25:56
  TRACK 10 AUDIO
    TITLE "Цыганская рапсодия"
    PERFORMER "Анатолий Полотно"
    REM COMPOSER ""
    INDEX 01 38:51:22
  TRACK 11 AUDIO
    TITLE "Статуя свободы"
    PERFORMER "Анатолий Полотно"
    REM COMPOSER ""
    INDEX 01 42:48:17
  TRACK 12 AUDIO
    TITLE "Пароход (Таёжная дорога XXI)"
    PERFORMER "Анатолий Полотно"
    REM COMPOSER ""
    INDEX 01 46:05:69

Код: выделить все
-----------------------

DON'T MODIFY THIS FILE

-----------------------

PERFORMER: auCDtect Task Manager, ver. 1.6.0 RC1 build 1.6.0.1
Copyright (c) 2008-2010 y-soft. All rights reserved
http://y-soft.org

ANALYZER: auCDtect: CD records authenticity detector, version 0.8.2
Copyright (c) 2004 Oleg Berngardt. All rights reserved.
Copyright (c) 2004 Alexander Djourik. All rights reserved.

FILE: Анатолий Полотно - Пароход.flac
  Size: 371443165 Hash: 9DE4D0B5067A5D366FCB02BD6293DFAD Accuracy: -m0
  Conclusion: CDDA 100%
  Signature: D32C9026587C0E14876F4A44F08520E9D32A0DB7

#77Издание: CC CD 35/05
Продолжительность - 01:19:13
Треклист:
01. На Cевере
02. Озноб
03. На рыбалку
04. Секретарша (Служебный роман)
05. Лекарь
06. Снег растаял...
07. Колечко
08. Так и живём
09. Ах, за что?
10. Не зови (Письмо)
11. Мыс Игольный
12. Не в деньгах счастье (посвящается 20-летию перестройки в СССР)
13. Колечко (Бонус-караоке)
14. На Севере (Бонус-караоке)
15. Снег растаял...(Бонус-караоке)
16. Лекарь (Бонус-караоке)
Код: выделить все
Exact Audio Copy V1.3 from 2. September 2016

Отчёт EAC об извлечении, выполненном 9. ноября 2017, 14:24

Анатолия Полотно / На севере

Дисковод: ASUS    DRW-24D5MT   Adapter: 1  ID: 0

Режим чтения                 : Достоверность
Использование точного потока : Да
Отключение кэша аудио        : Да
Использование указателей C2  : Нет

Коррекция смещения при чтении                     : 6
Способность читать области Lead-in и Lead-out     : Нет
Заполнение пропущенных сэмплов тишиной            : Да
Удаление блоков с тишиной в начале и конце        : Нет
При вычислениях CRC использовались нулевые сэмплы : Да
Интерфейс                                         : Встроенный Win32-интерфейс для Win NT/2000

Выходной формат          : Пользовательский кодировщик
Выбранный битрейт        : 128 kBit/s
Качество                 : Высокий
Добавление ID3-тега      : Нет
Утилита сжатия           : C:\Program Files (x86)\Exact Audio Copy\Flac\flac.exe
Дополнительные параметры : -V -8 -T "Date=%year%" -T "Genre=%genre%" %source%

TOC извлечённого CD

     Трек |   Старт  | Длительность | Начальный сектор | Конечный сектор
    ---------------------------------------------------------------------
       1  |  0:00.00 |    4:28.00   |           0      |      20099
       2  |  4:28.00 |    4:31.52   |       20100      |      40476
       3  |  8:59.52 |    5:40.00   |       40477      |      65976
       4  | 14:39.52 |    5:17.64   |       65977      |      89815
       5  | 19:57.41 |    3:58.35   |       89816      |     107700
       6  | 23:56.01 |    5:30.58   |      107701      |     132508
       7  | 29:26.59 |    5:21.41   |      132509      |     156624
       8  | 34:48.25 |    4:24.24   |      156625      |     176448
       9  | 39:12.49 |    3:56.47   |      176449      |     194195
      10  | 43:09.21 |    5:49.18   |      194196      |     220388
      11  | 48:58.39 |    5:38.12   |      220389      |     245750
      12  | 54:36.51 |    5:21.29   |      245751      |     269854
      13  | 59:58.05 |    5:19.41   |      269855      |     293820
      14  | 65:17.46 |    4:28.00   |      293821      |     313920
      15  | 69:45.46 |    5:30.58   |      313921      |     338728
      16  | 75:16.29 |    3:56.35   |      338729      |     356463

Характеристики диапазона извлечения и сообщения об ошибках

Выбранный диапазон

     Имя файла E:\Раздачи\NNMClub-eloychik ®\Анатолий Полотно - 6 aльбомов [nnm-club.me]\2005 - На севере\Анатолия Полотно - На севере.wav

     Пиковый уровень 100.0 %
     Скорость извлечения 3.6 X
     Качество диапазона 100.0 %
     CRC теста 7E7081B1
     CRC копии 7E7081B1
     Копирование... OK

Ошибок не произошло

AccurateRip: сводка

Трек  1  точность не определена (достоверность 1)  [51201985], AccurateRip вернул [73219512]  (AR v2)
Трек  2  точность не определена (достоверность 1)  [F149EA36], AccurateRip вернул [114C341D]  (AR v2)
Трек  3  точность не определена (достоверность 1)  [DD22C70F], AccurateRip вернул [E0300C78]  (AR v2)
Трек  4  точность не определена (достоверность 1)  [701AFE40], AccurateRip вернул [5BCDFA21]  (AR v2)
Трек  5  точность не определена (достоверность 1)  [5D12F9BB], AccurateRip вернул [75D393FB]  (AR v2)
Трек  6  точность не определена (достоверность 1)  [494164F7], AccurateRip вернул [6D1E5C7D]  (AR v2)
Трек  7  точность не определена (достоверность 1)  [5CA613C2], AccurateRip вернул [874DE23D]  (AR v2)
Трек  8  точность не определена (достоверность 1)  [18A164B0], AccurateRip вернул [36FAA60E]  (AR v2)
Трек  9  точность не определена (достоверность 1)  [0FE0CA09], AccurateRip вернул [8F804A9C]  (AR v2)
Трек 10  точность не определена (достоверность 1)  [C7990012], AccurateRip вернул [90E48F96]  (AR v2)
Трек 11  точность не определена (достоверность 1)  [04836B83], AccurateRip вернул [7629F81E]  (AR v2)
Трек 12  точность не определена (достоверность 1)  [5C8192C2], AccurateRip вернул [6B5ED4AA]  (AR v2)
Трек 13  точность не определена (достоверность 1)  [85168A81], AccurateRip вернул [A0990B1D]  (AR v2)
Трек 14  точность не определена (достоверность 1)  [EED9A631], AccurateRip вернул [1703E5B8]  (AR v2)
Трек 15  точность не определена (достоверность 1)  [F075F205], AccurateRip вернул [EE02EDD0]  (AR v2)
Трек 16  точность не определена (достоверность 1)  [5C487E78], AccurateRip вернул [4ADA9962]  (AR v2)

Ни один трек не прошёл проверки на точность
В вашей базе может быть иной вариант штамповки диска

Конец отчёта

==== Контрольная сумма отчёта D6F58AA5C58F1CE3454A008E864284CE157A05952D0BFFA87FD9F43C01C2173C ====

Код: выделить все
REM GENRE Chanson
REM DATE 2005
REM DISCID F2129010
REM COMMENT "ExactAudioCopy v1.3"
PERFORMER "Анатолия Полотно"
TITLE "На севере"
REM COMPOSER ""
FILE "Анатолия Полотно - На севере.flac" WAVE
  TRACK 01 AUDIO
    TITLE "На севере"
    PERFORMER "Анатолия Полотно"
    REM COMPOSER ""
    INDEX 01 00:00:00
  TRACK 02 AUDIO
    TITLE "Озноб"
    PERFORMER "Анатолия Полотно"
    REM COMPOSER ""
    INDEX 01 04:28:00
  TRACK 03 AUDIO
    TITLE "На рыбалку"
    PERFORMER "Анатолия Полотно"
    REM COMPOSER ""
    INDEX 01 08:59:52
  TRACK 04 AUDIO
    TITLE "Секретарша"
    PERFORMER "Анатолия Полотно"
    REM COMPOSER ""
    INDEX 01 14:39:52
  TRACK 05 AUDIO
    TITLE "Лекарь"
    PERFORMER "Анатолия Полотно"
    REM COMPOSER ""
    INDEX 01 19:57:41
  TRACK 06 AUDIO
    TITLE "Снег растаял..."
    PERFORMER "Анатолия Полотно"
    REM COMPOSER ""
    INDEX 01 23:56:01
  TRACK 07 AUDIO
    TITLE "Колечко"
    PERFORMER "Анатолия Полотно"
    REM COMPOSER ""
    INDEX 01 29:26:59
  TRACK 08 AUDIO
    TITLE "Так и живем"
    PERFORMER "Анатолия Полотно"
    REM COMPOSER ""
    INDEX 01 34:48:25
  TRACK 09 AUDIO
    TITLE "Ах, за что?"
    PERFORMER "Анатолия Полотно"
    REM COMPOSER ""
    INDEX 01 39:12:49
  TRACK 10 AUDIO
    TITLE "Не зови"
    PERFORMER "Анатолия Полотно"
    REM COMPOSER ""
    INDEX 01 43:09:21
  TRACK 11 AUDIO
    TITLE "Мыс Игольный"
    PERFORMER "Анатолия Полотно"
    REM COMPOSER ""
    INDEX 01 48:58:39
  TRACK 12 AUDIO
    TITLE "Не в деньгах счастье"
    PERFORMER "Анатолия Полотно"
    REM COMPOSER ""
    INDEX 01 54:36:51
  TRACK 13 AUDIO
    TITLE "Колечко (Караоке) "
    PERFORMER "Анатолия Полотно"
    REM COMPOSER ""
    INDEX 01 59:58:05
  TRACK 14 AUDIO
    TITLE "На Севере (Караоке) "
    PERFORMER "Анатолия Полотно"
    REM COMPOSER ""
    INDEX 01 65:17:46
  TRACK 15 AUDIO
    TITLE "Снег растаял...(Караоке)"
    PERFORMER "Анатолия Полотно"
    REM COMPOSER ""
    INDEX 01 69:45:46
  TRACK 16 AUDIO
    TITLE "Лекарь (Караоке)"
    PERFORMER "Анатолия Полотно"
    REM COMPOSER ""
    INDEX 01 75:16:29

Код: выделить все
-----------------------

DON'T MODIFY THIS FILE

-----------------------

PERFORMER: auCDtect Task Manager, ver. 1.6.0 RC1 build 1.6.0.1
Copyright (c) 2008-2010 y-soft. All rights reserved
http://y-soft.org

ANALYZER: auCDtect: CD records authenticity detector, version 0.8.2
Copyright (c) 2004 Oleg Berngardt. All rights reserved.
Copyright (c) 2004 Alexander Djourik. All rights reserved.

FILE: Анатолия Полотно - На севере.flac
  Size: 571500014 Hash: C1A252A93D224BD1AA3552B0B345515D Accuracy: -m0
  Conclusion: CDDA 100%
  Signature: 4601B76C7DEADF2EBB54CD17EA6FF35454197CC9

#77Издание: CC CD 33/07
Продолжительность - 01:01:04
Треклист:
01. Эх, Россиюшка...
02. По Дону
03. Женушка
04. Директивы
05. Станция Валежная
06. Мелодия весны
07. Жизнь
08. Был когда-то и день...
09. Не было, и нет
10. Истина в вине!
11. В мореходку
12. Добрый ечер
13. Женушка (караоке)
14. Добрый вечер (караоке)
Код: выделить все
Exact Audio Copy V1.3 from 2. September 2016

Отчёт EAC об извлечении, выполненном 28. ноября 2017, 10:52

Анатолий Полотно / Эх, Россиюшка...

Дисковод: ASUS    DRW-24D5MT   Adapter: 1  ID: 0

Режим чтения                 : Достоверность
Использование точного потока : Да
Отключение кэша аудио        : Да
Использование указателей C2  : Нет

Коррекция смещения при чтении                     : 6
Способность читать области Lead-in и Lead-out     : Нет
Заполнение пропущенных сэмплов тишиной            : Да
Удаление блоков с тишиной в начале и конце        : Нет
При вычислениях CRC использовались нулевые сэмплы : Да
Интерфейс                                         : Встроенный Win32-интерфейс для Win NT/2000

Выходной формат          : Пользовательский кодировщик
Выбранный битрейт        : 128 kBit/s
Качество                 : Высокий
Добавление ID3-тега      : Нет
Утилита сжатия           : C:\Program Files (x86)\Exact Audio Copy\Flac\flac.exe
Дополнительные параметры : -V -8 -T "Date=%year%" -T "Genre=%genre%" %source%

TOC извлечённого CD

     Трек |   Старт  | Длительность | Начальный сектор | Конечный сектор
    ---------------------------------------------------------------------
       1  |  0:00.00 |    6:18.46   |           0      |      28395
       2  |  6:18.46 |    4:57.60   |       28396      |      50730
       3  | 11:16.31 |    4:07.29   |       50731      |      69284
       4  | 15:23.60 |    4:32.47   |       69285      |      89731
       5  | 19:56.32 |    5:38.22   |       89732      |     115103
       6  | 25:34.54 |    3:48.37   |      115104      |     132240
       7  | 29:23.16 |    4:48.74   |      132241      |     153914
       8  | 34:12.15 |    5:22.20   |      153915      |     178084
       9  | 39:34.35 |    3:13.37   |      178085      |     192596
      10  | 42:47.72 |    3:47.23   |      192597      |     209644
      11  | 46:35.20 |    4:36.59   |      209645      |     230403
      12  | 51:12.04 |    2:56.42   |      230404      |     243645
      13  | 54:08.46 |    4:05.00   |      243646      |     262020
      14  | 58:13.46 |    2:59.43   |      262021      |     275488

Характеристики диапазона извлечения и сообщения об ошибках

Выбранный диапазон

     Имя файла E:\Раздачи\NNMClub-eloychik ®\Анатолий Полотно - 8 aльбомов [nnm-club.me]\2007 - Эх, Россиюшка\Анатолий Полотно - Эх, Россиюшка....wav

     Пиковый уровень 100.0 %
     Скорость извлечения 7.9 X
     Качество диапазона 100.0 %
     CRC теста D6B03E3E
     CRC копии D6B03E3E
     Копирование... OK

Ошибок не произошло

AccurateRip: сводка

Трек  1  отсутствует в базе данных
Трек  2  отсутствует в базе данных
Трек  3  отсутствует в базе данных
Трек  4  отсутствует в базе данных
Трек  5  отсутствует в базе данных
Трек  6  отсутствует в базе данных
Трек  7  отсутствует в базе данных
Трек  8  отсутствует в базе данных
Трек  9  отсутствует в базе данных
Трек 10  отсутствует в базе данных
Трек 11  отсутствует в базе данных
Трек 12  отсутствует в базе данных
Трек 13  отсутствует в базе данных
Трек 14  отсутствует в базе данных

Ни одного трека нет в базе AccurateRip

Конец отчёта

==== Контрольная сумма отчёта A7BE5D4BCC7CF84A2DEE54F7C67A303FBEE89D1F2A920291BB7F7EE94D107883 ====

Код: выделить все
REM GENRE Chanson
REM DATE 2007
REM DISCID E00E590E
REM COMMENT "ExactAudioCopy v1.3"
PERFORMER "Анатолий Полотно"
TITLE "Эх, Россиюшка..."
REM COMPOSER ""
FILE "Анатолий Полотно - Эх, Россиюшка....flac" WAVE
  TRACK 01 AUDIO
    TITLE "Эх, Россиюшка..."
    PERFORMER "Анатолий Полотно"
    REM COMPOSER ""
    INDEX 01 00:00:00
  TRACK 02 AUDIO
    TITLE "По Дону "
    PERFORMER "Анатолий Полотно"
    REM COMPOSER ""
    INDEX 01 06:18:46
  TRACK 03 AUDIO
    TITLE "Женушка"
    PERFORMER "Анатолий Полотно"
    REM COMPOSER ""
    INDEX 01 11:16:31
  TRACK 04 AUDIO
    TITLE "Директивы"
    PERFORMER "Анатолий Полотно"
    REM COMPOSER ""
    INDEX 01 15:23:60
  TRACK 05 AUDIO
    TITLE "Станция Валежная"
    PERFORMER "Анатолий Полотно"
    REM COMPOSER ""
    INDEX 01 19:56:32
  TRACK 06 AUDIO
    TITLE "Мелодия весны"
    PERFORMER "Анатолий Полотно"
    REM COMPOSER ""
    INDEX 01 25:34:54
  TRACK 07 AUDIO
    TITLE "Жизнь"
    PERFORMER "Анатолий Полотно"
    REM COMPOSER ""
    INDEX 01 29:23:16
  TRACK 08 AUDIO
    TITLE "Был когда-то и день..."
    PERFORMER "Анатолий Полотно"
    REM COMPOSER ""
    INDEX 01 34:12:15
  TRACK 09 AUDIO
    TITLE "Не было, и нет"
    PERFORMER "Анатолий Полотно"
    REM COMPOSER ""
    INDEX 01 39:34:35
  TRACK 10 AUDIO
    TITLE "Истина в вине!"
    PERFORMER "Анатолий Полотно"
    REM COMPOSER ""
    INDEX 01 42:47:72
  TRACK 11 AUDIO
    TITLE "В мореходку"
    PERFORMER "Анатолий Полотно"
    REM COMPOSER ""
    INDEX 01 46:35:20
  TRACK 12 AUDIO
    TITLE "Добрый вечер"
    PERFORMER "Анатолий Полотно"
    REM COMPOSER ""
    INDEX 01 51:12:04
  TRACK 13 AUDIO
    TITLE "Женушка (караоке)"
    PERFORMER "Анатолий Полотно"
    REM COMPOSER ""
    INDEX 01 54:08:46
  TRACK 14 AUDIO
    TITLE "Добрый вечер (караоке)"
    PERFORMER "Анатолий Полотно"
    REM COMPOSER ""
    INDEX 01 58:13:46

Код: выделить все
-----------------------

DON'T MODIFY THIS FILE

-----------------------

PERFORMER: auCDtect Task Manager, ver. 1.6.0 RC1 build 1.6.0.1
Copyright (c) 2008-2010 y-soft. All rights reserved
http://y-soft.org

ANALYZER: auCDtect: CD records authenticity detector, version 0.8.2
Copyright (c) 2004 Oleg Berngardt. All rights reserved.
Copyright (c) 2004 Alexander Djourik. All rights reserved.

FILE: Анатолий Полотно - Эх, Россиюшка....flac
  Size: 442031878 Hash: 4A5639840DCF57E32C4508FB815FB10B Accuracy: -m0
  Conclusion: CDDA 100%
  Signature: B5FFFD55AF4CED56A96E2E79E808E59DD30C3EA3

#77Издание: Artur Music CD 491
Продолжительность - 01:00:09
Треклист:
01. Рублики...(дуэт с Федей Кармановым)
02. Соколик
03. Ручеёчки
04. Карелия
05. Полоска света
06. То, что было
07. Метелица
08. Огоньки
09. За Полярный круг
10. Камчатка (дуэт с Федей Кармановым)
11. Рублики (караоке)
12. Соколик (караоке)
13. Карелия (караоке)
14. То, что было (караоке)
15. Камчатка (караоке)
Код: выделить все
Exact Audio Copy V1.3 from 2. September 2016

Отчёт EAC об извлечении, выполненном 8. марта 2017, 14:05

Анатолий Полотно / Наша сторона

Дисковод: ASUS    DRW-24B3ST   Adapter: 1  ID: 0

Режим чтения                 : Достоверность
Использование точного потока : Да
Отключение кэша аудио        : Да
Использование указателей C2  : Нет

Коррекция смещения при чтении                     : 6
Способность читать области Lead-in и Lead-out     : Нет
Заполнение пропущенных сэмплов тишиной            : Да
Удаление блоков с тишиной в начале и конце        : Нет
При вычислениях CRC использовались нулевые сэмплы : Да
Интерфейс                                         : Встроенный Win32-интерфейс для Win NT/2000

Выходной формат          : Пользовательский кодировщик
Выбранный битрейт        : 128 kBit/s
Качество                 : Высокий
Добавление ID3-тега      : Нет
Утилита сжатия           : C:\Program Files (x86)\Exact Audio Copy\Flac\flac.exe
Дополнительные параметры :  -V -8 -T "Date=%year%" -T "Genre=%genre%" %source%

TOC извлечённого CD

     Трек |   Старт  | Длительность | Начальный сектор | Конечный сектор
    ---------------------------------------------------------------------
       1  |  0:00.00 |    3:06.37   |           0      |      13986
       2  |  3:06.37 |    3:45.55   |       13987      |      30916
       3  |  6:52.17 |    4:12.04   |       30917      |      49820
       4  | 11:04.21 |    4:22.23   |       49821      |      69493
       5  | 15:26.44 |    4:45.67   |       69494      |      90935
       6  | 20:12.36 |    4:52.24   |       90936      |     112859
       7  | 25:04.60 |    4:00.18   |      112860      |     130877
       8  | 29:05.03 |    4:52.74   |      130878      |     152851
       9  | 33:58.02 |    3:19.74   |      152852      |     167850
      10  | 37:18.01 |    4:01.24   |      167851      |     185949
      11  | 41:19.25 |    3:49.27   |      185950      |     203151
      12  | 45:08.52 |    3:52.73   |      203152      |     220624
      13  | 49:01.50 |    3:05.54   |      220625      |     234553
      14  | 52:07.29 |    3:44.69   |      234554      |     251422
      15  | 55:52.23 |    4:12.15   |      251423      |     270337
      16  | 60:04.38 |    4:22.19   |      270338      |     290006
      17  | 64:26.57 |    4:00.74   |      290007      |     308080
      18  | 68:27.56 |    3:19.74   |      308081      |     323079
      19  | 71:47.55 |    3:49.32   |      323080      |     340286

Характеристики диапазона извлечения и сообщения об ошибках

Выбранный диапазон

     Имя файла E:\Раздачи\NNMClub-eloychik ®\Анатолий Полотно - 5 aльбомов [NNMClub.to]\2015 - Наша сторона\Анатолий Полотно - Наша сторона.wav

     Пиковый уровень 99.0 %
     Скорость извлечения 3.4 X
     Качество диапазона 99.9 %
     CRC теста 7A9BEC58
     CRC копии 7A9BEC58
     Копирование... OK

Ошибок не произошло

AccurateRip: сводка

Трек  1  отсутствует в базе данных
Трек  2  отсутствует в базе данных
Трек  3  отсутствует в базе данных
Трек  4  отсутствует в базе данных
Трек  5  отсутствует в базе данных
Трек  6  отсутствует в базе данных
Трек  7  отсутствует в базе данных
Трек  8  отсутствует в базе данных
Трек  9  отсутствует в базе данных
Трек 10  отсутствует в базе данных
Трек 11  отсутствует в базе данных
Трек 12  отсутствует в базе данных
Трек 13  отсутствует в базе данных
Трек 14  отсутствует в базе данных
Трек 15  отсутствует в базе данных
Трек 16  отсутствует в базе данных
Трек 17  отсутствует в базе данных
Трек 18  отсутствует в базе данных
Трек 19  отсутствует в базе данных

Ни одного трека нет в базе AccurateRip

Конец отчёта

==== Контрольная сумма отчёта 08FE871D140E3DE9F14AC68DE31CAE810AC3CE26421EB92878762DF95ACB09CB ====

Код: выделить все
REM GENRE Chanson
REM DATE 2015
REM DISCID 0611B913
REM COMMENT "ExactAudioCopy v1.3"
PERFORMER "Анатолий Полотно"
TITLE "Наша сторона"
REM COMPOSER ""
FILE "Анатолий Полотно - Наша сторона.flac" WAVE
  TRACK 01 AUDIO
    TITLE "Наша сторона"
    PERFORMER "Анатолий Полотно"
    REM COMPOSER ""
    FLAGS DCP
    INDEX 01 00:00:00
  TRACK 02 AUDIO
    TITLE "Ледостав "
    PERFORMER "Анатолий Полотно"
    REM COMPOSER ""
    FLAGS DCP
    INDEX 00 03:04:37
    INDEX 01 03:06:37
  TRACK 03 AUDIO
    TITLE "Вниз по Лене по реке"
    PERFORMER "Анатолий Полотно"
    REM COMPOSER ""
    FLAGS DCP
    INDEX 00 06:50:17
    INDEX 01 06:52:17
  TRACK 04 AUDIO
    TITLE "Живи и живи, что ещё..."
    PERFORMER "Анатолий Полотно"
    REM COMPOSER ""
    FLAGS DCP
    INDEX 00 11:02:21
    INDEX 01 11:04:21
  TRACK 05 AUDIO
    TITLE "Птенец"
    PERFORMER "Анатолий Полотно"
    REM COMPOSER ""
    FLAGS DCP
    INDEX 00 15:24:44
    INDEX 01 15:26:44
  TRACK 06 AUDIO
    TITLE "Весенняя ночь"
    PERFORMER "Анатолий Полотно"
    REM COMPOSER ""
    FLAGS DCP
    INDEX 00 20:10:36
    INDEX 01 20:12:36
  TRACK 07 AUDIO
    TITLE "Тропиночки"
    PERFORMER "Анатолий Полотно"
    REM COMPOSER ""
    FLAGS DCP
    INDEX 00 25:02:60
    INDEX 01 25:04:60
  TRACK 08 AUDIO
    TITLE "А вокруг тайга"
    PERFORMER "Анатолий Полотно"
    REM COMPOSER ""
    FLAGS DCP
    INDEX 00 29:03:03
    INDEX 01 29:05:03
  TRACK 09 AUDIO
    TITLE "Есть еще и корабли"
    PERFORMER "Анатолий Полотно"
    REM COMPOSER ""
    FLAGS DCP
    INDEX 00 33:56:02
    INDEX 01 33:58:02
  TRACK 10 AUDIO
    TITLE "Ялик"
    PERFORMER "Анатолий Полотно"
    REM COMPOSER ""
    FLAGS DCP
    INDEX 00 37:16:01
    INDEX 01 37:18:01
  TRACK 11 AUDIO
    TITLE "Хочу замуж"
    PERFORMER "Анатолий Полотно"
    REM COMPOSER ""
    FLAGS DCP
    INDEX 00 41:17:25
    INDEX 01 41:19:25
  TRACK 12 AUDIO
    TITLE "Всё когда-то случается"
    PERFORMER "Анатолий Полотно"
    REM COMPOSER ""
    FLAGS DCP
    INDEX 00 45:06:52
    INDEX 01 45:08:52
  TRACK 13 AUDIO
    TITLE "Наша сторона (караоке)"
    PERFORMER "Анатолий Полотно"
    REM COMPOSER ""
    FLAGS DCP
    INDEX 00 48:59:50
    INDEX 01 49:01:50
  TRACK 14 AUDIO
    TITLE "Ледостав (караоке)"
    PERFORMER "Анатолий Полотно"
    REM COMPOSER ""
    FLAGS DCP
    INDEX 00 52:05:29
    INDEX 01 52:07:29
  TRACK 15 AUDIO
    TITLE "Вниз по Лене по реке (караоке)"
    PERFORMER "Анатолий Полотно"
    REM COMPOSER ""
    FLAGS DCP
    INDEX 00 55:50:23
    INDEX 01 55:52:23
  TRACK 16 AUDIO
    TITLE "Живи и живи, что ещё... (караоке)"
    PERFORMER "Анатолий Полотно"
    REM COMPOSER ""
    FLAGS DCP
    INDEX 00 60:02:38
    INDEX 01 60:04:38
  TRACK 17 AUDIO
    TITLE "Тропиночки (караоке)"
    PERFORMER "Анатолий Полотно"
    REM COMPOSER ""
    FLAGS DCP
    INDEX 00 64:24:57
    INDEX 01 64:26:57
  TRACK 18 AUDIO
    TITLE "Есть еще и корабли (караоке)"
    PERFORMER "Анатолий Полотно"
    REM COMPOSER ""
    FLAGS DCP
    INDEX 00 68:25:56
    INDEX 01 68:27:56
  TRACK 19 AUDIO
    TITLE "Всё когда-то случается (караоке)"
    PERFORMER "Анатолий Полотно"
    REM COMPOSER ""
    FLAGS DCP
    INDEX 00 71:45:55
    INDEX 01 71:47:55

Код: выделить все
-----------------------

DON'T MODIFY THIS FILE

-----------------------

PERFORMER: auCDtect Task Manager, ver. 1.6.0 RC1 build 1.6.0.1
Copyright (c) 2008-2010 y-soft. All rights reserved
http://y-soft.org

ANALYZER: auCDtect: CD records authenticity detector, version 0.8.2
Copyright (c) 2004 Oleg Berngardt. All rights reserved.
Copyright (c) 2004 Alexander Djourik. All rights reserved.

FILE: Анатолий Полотно - Рублики....flac
  Size: 456565187 Hash: 22C6E48DBF53EDAAE7992DAF13B481CB Accuracy: -m0
  Conclusion: CDDA 100%
  Signature: 0801AD2EE37C8711A545FE34AEE0E841C1E83048

#77Издание: UMG15 CD-5075
Продолжительность -01:15:38
Треклист:
01. Наша сторона
02. Ледостав (Посвящается моему другу Артуру Чилингарову и его жене Татьяне)
03. Вниз по Лене по реке
04. Живи и живи, что ещё...
05. Птенец
06. Весенняя ночь
07. Тропиночки
08. А вокруг тайга
09. Есть еще и корабли
10. Ялик
11. Хочу замуж
12. Всё когда-то случается
13. Наша сторона (караоке)
14. Ледостав (караоке)
15. Вниз по Лене по реке (караоке)
16. Живи и живи, что ещё... (караоке)
17. Тропиночки (караоке)
18. Есть еще и корабли (караоке)
19. Всё когда-то случается (караоке)
Код: выделить все
Exact Audio Copy V1.3 from 2. September 2016

Отчёт EAC об извлечении, выполненном 8. марта 2017, 14:05

Анатолий Полотно / Наша сторона

Дисковод: ASUS    DRW-24B3ST   Adapter: 1  ID: 0

Режим чтения                 : Достоверность
Использование точного потока : Да
Отключение кэша аудио        : Да
Использование указателей C2  : Нет

Коррекция смещения при чтении                     : 6
Способность читать области Lead-in и Lead-out     : Нет
Заполнение пропущенных сэмплов тишиной            : Да
Удаление блоков с тишиной в начале и конце        : Нет
При вычислениях CRC использовались нулевые сэмплы : Да
Интерфейс                                         : Встроенный Win32-интерфейс для Win NT/2000

Выходной формат          : Пользовательский кодировщик
Выбранный битрейт        : 128 kBit/s
Качество                 : Высокий
Добавление ID3-тега      : Нет
Утилита сжатия           : C:\Program Files (x86)\Exact Audio Copy\Flac\flac.exe
Дополнительные параметры :  -V -8 -T "Date=%year%" -T "Genre=%genre%" %source%

TOC извлечённого CD

     Трек |   Старт  | Длительность | Начальный сектор | Конечный сектор
    ---------------------------------------------------------------------
       1  |  0:00.00 |    3:06.37   |           0      |      13986
       2  |  3:06.37 |    3:45.55   |       13987      |      30916
       3  |  6:52.17 |    4:12.04   |       30917      |      49820
       4  | 11:04.21 |    4:22.23   |       49821      |      69493
       5  | 15:26.44 |    4:45.67   |       69494      |      90935
       6  | 20:12.36 |    4:52.24   |       90936      |     112859
       7  | 25:04.60 |    4:00.18   |      112860      |     130877
       8  | 29:05.03 |    4:52.74   |      130878      |     152851
       9  | 33:58.02 |    3:19.74   |      152852      |     167850
      10  | 37:18.01 |    4:01.24   |      167851      |     185949
      11  | 41:19.25 |    3:49.27   |      185950      |     203151
      12  | 45:08.52 |    3:52.73   |      203152      |     220624
      13  | 49:01.50 |    3:05.54   |      220625      |     234553
      14  | 52:07.29 |    3:44.69   |      234554      |     251422
      15  | 55:52.23 |    4:12.15   |      251423      |     270337
      16  | 60:04.38 |    4:22.19   |      270338      |     290006
      17  | 64:26.57 |    4:00.74   |      290007      |     308080
      18  | 68:27.56 |    3:19.74   |      308081      |     323079
      19  | 71:47.55 |    3:49.32   |      323080      |     340286

Характеристики диапазона извлечения и сообщения об ошибках

Выбранный диапазон

     Имя файла E:\Раздачи\NNMClub-eloychik ®\Анатолий Полотно - 5 aльбомов [NNMClub.to]\2015 - Наша сторона\Анатолий Полотно - Наша сторона.wav

     Пиковый уровень 99.0 %
     Скорость извлечения 3.4 X
     Качество диапазона 99.9 %
     CRC теста 7A9BEC58
     CRC копии 7A9BEC58
     Копирование... OK

Ошибок не произошло

AccurateRip: сводка

Трек  1  отсутствует в базе данных
Трек  2  отсутствует в базе данных
Трек  3  отсутствует в базе данных
Трек  4  отсутствует в базе данных
Трек  5  отсутствует в базе данных
Трек  6  отсутствует в базе данных
Трек  7  отсутствует в базе данных
Трек  8  отсутствует в базе данных
Трек  9  отсутствует в базе данных
Трек 10  отсутствует в базе данных
Трек 11  отсутствует в базе данных
Трек 12  отсутствует в базе данных
Трек 13  отсутствует в базе данных
Трек 14  отсутствует в базе данных
Трек 15  отсутствует в базе данных
Трек 16  отсутствует в базе данных
Трек 17  отсутствует в базе данных
Трек 18  отсутствует в базе данных
Трек 19  отсутствует в базе данных

Ни одного трека нет в базе AccurateRip

Конец отчёта

==== Контрольная сумма отчёта 08FE871D140E3DE9F14AC68DE31CAE810AC3CE26421EB92878762DF95ACB09CB ====

Код: выделить все
REM GENRE Chanson
REM DATE 2015
REM DISCID 0611B913
REM COMMENT "ExactAudioCopy v1.3"
PERFORMER "Анатолий Полотно"
TITLE "Наша сторона"
REM COMPOSER ""
FILE "Анатолий Полотно - Наша сторона.flac" WAVE
  TRACK 01 AUDIO
    TITLE "Наша сторона"
    PERFORMER "Анатолий Полотно"
    REM COMPOSER ""
    FLAGS DCP
    INDEX 01 00:00:00
  TRACK 02 AUDIO
    TITLE "Ледостав "
    PERFORMER "Анатолий Полотно"
    REM COMPOSER ""
    FLAGS DCP
    INDEX 00 03:04:37
    INDEX 01 03:06:37
  TRACK 03 AUDIO
    TITLE "Вниз по Лене по реке"
    PERFORMER "Анатолий Полотно"
    REM COMPOSER ""
    FLAGS DCP
    INDEX 00 06:50:17
    INDEX 01 06:52:17
  TRACK 04 AUDIO
    TITLE "Живи и живи, что ещё..."
    PERFORMER "Анатолий Полотно"
    REM COMPOSER ""
    FLAGS DCP
    INDEX 00 11:02:21
    INDEX 01 11:04:21
  TRACK 05 AUDIO
    TITLE "Птенец"
    PERFORMER "Анатолий Полотно"
    REM COMPOSER ""
    FLAGS DCP
    INDEX 00 15:24:44
    INDEX 01 15:26:44
  TRACK 06 AUDIO
    TITLE "Весенняя ночь"
    PERFORMER "Анатолий Полотно"
    REM COMPOSER ""
    FLAGS DCP
    INDEX 00 20:10:36
    INDEX 01 20:12:36
  TRACK 07 AUDIO
    TITLE "Тропиночки"
    PERFORMER "Анатолий Полотно"
    REM COMPOSER ""
    FLAGS DCP
    INDEX 00 25:02:60
    INDEX 01 25:04:60
  TRACK 08 AUDIO
    TITLE "А вокруг тайга"
    PERFORMER "Анатолий Полотно"
    REM COMPOSER ""
    FLAGS DCP
    INDEX 00 29:03:03
    INDEX 01 29:05:03
  TRACK 09 AUDIO
    TITLE "Есть еще и корабли"
    PERFORMER "Анатолий Полотно"
    REM COMPOSER ""
    FLAGS DCP
    INDEX 00 33:56:02
    INDEX 01 33:58:02
  TRACK 10 AUDIO
    TITLE "Ялик"
    PERFORMER "Анатолий Полотно"
    REM COMPOSER ""
    FLAGS DCP
    INDEX 00 37:16:01
    INDEX 01 37:18:01
  TRACK 11 AUDIO
    TITLE "Хочу замуж"
    PERFORMER "Анатолий Полотно"
    REM COMPOSER ""
    FLAGS DCP
    INDEX 00 41:17:25
    INDEX 01 41:19:25
  TRACK 12 AUDIO
    TITLE "Всё когда-то случается"
    PERFORMER "Анатолий Полотно"
    REM COMPOSER ""
    FLAGS DCP
    INDEX 00 45:06:52
    INDEX 01 45:08:52
  TRACK 13 AUDIO
    TITLE "Наша сторона (караоке)"
    PERFORMER "Анатолий Полотно"
    REM COMPOSER ""
    FLAGS DCP
    INDEX 00 48:59:50
    INDEX 01 49:01:50
  TRACK 14 AUDIO
    TITLE "Ледостав (караоке)"
    PERFORMER "Анатолий Полотно"
    REM COMPOSER ""
    FLAGS DCP
    INDEX 00 52:05:29
    INDEX 01 52:07:29
  TRACK 15 AUDIO
    TITLE "Вниз по Лене по реке (караоке)"
    PERFORMER "Анатолий Полотно"
    REM COMPOSER ""
    FLAGS DCP
    INDEX 00 55:50:23
    INDEX 01 55:52:23
  TRACK 16 AUDIO
    TITLE "Живи и живи, что ещё... (караоке)"
    PERFORMER "Анатолий Полотно"
    REM COMPOSER ""
    FLAGS DCP
    INDEX 00 60:02:38
    INDEX 01 60:04:38
  TRACK 17 AUDIO
    TITLE "Тропиночки (караоке)"
    PERFORMER "Анатолий Полотно"
    REM COMPOSER ""
    FLAGS DCP
    INDEX 00 64:24:57
    INDEX 01 64:26:57
  TRACK 18 AUDIO
    TITLE "Есть еще и корабли (караоке)"
    PERFORMER "Анатолий Полотно"
    REM COMPOSER ""
    FLAGS DCP
    INDEX 00 68:25:56
    INDEX 01 68:27:56
  TRACK 19 AUDIO
    TITLE "Всё когда-то случается (караоке)"
    PERFORMER "Анатолий Полотно"
    REM COMPOSER ""
    FLAGS DCP
    INDEX 00 71:45:55
    INDEX 01 71:47:55

Код: выделить все
-----------------------

DON'T MODIFY THIS FILE

-----------------------

PERFORMER: auCDtect Task Manager, ver. 1.6.0 RC1 build 1.6.0.1
Copyright (c) 2008-2010 y-soft. All rights reserved
http://y-soft.org

ANALYZER: auCDtect: CD records authenticity detector, version 0.8.2
Copyright (c) 2004 Oleg Berngardt. All rights reserved.
Copyright (c) 2004 Alexander Djourik. All rights reserved.

FILE: Анатолий Полотно - Наша сторона.flac
  Size: 576881687 Hash: F12E7D4EB4DBDB86B5B49FD91081156F Accuracy: -m0
  Conclusion: CDDA 100%
  Signature: EEC07D826953DC09F0D64180D8B0367172623D12

#77Издание: UMG16 CD-5186
Продолжительность -01:06:39
Треклист:
01. Берег
02. Их умом Россию не понять
03. Всё в порядке
04. Минуты счастья
05. О любви
06. С Днём рождения
07. Мальдивы
08. Непогода
09. Потолкуем, давай
10. Старое танго
11. Циферблат
12. Дорога
13. Берег (караоке)
14. Их умом Россию не понять (караоке)
15. С Днём Рождения! (караоке)
16. О любви (караоке)
17. Минуты счастья (караоке)
Код: выделить все
Exact Audio Copy V1.3 from 2. September 2016

Отчёт EAC об извлечении, выполненном 15. марта 2017, 15:19

Анатолий Полотно / Берег

Дисковод: ASUS    DRW-24B3ST   Adapter: 1  ID: 0

Режим чтения                 : Достоверность
Использование точного потока : Да
Отключение кэша аудио        : Да
Использование указателей C2  : Нет

Коррекция смещения при чтении                     : 6
Способность читать области Lead-in и Lead-out     : Нет
Заполнение пропущенных сэмплов тишиной            : Да
Удаление блоков с тишиной в начале и конце        : Нет
При вычислениях CRC использовались нулевые сэмплы : Да
Интерфейс                                         : Встроенный Win32-интерфейс для Win NT/2000

Выходной формат          : Пользовательский кодировщик
Выбранный битрейт        : 128 kBit/s
Качество                 : Высокий
Добавление ID3-тега      : Нет
Утилита сжатия           : C:\Program Files (x86)\Exact Audio Copy\Flac\flac.exe
Дополнительные параметры :  -V -8 -T "Date=%year%" -T "Genre=%genre%" %source%

TOC извлечённого CD

     Трек |   Старт  | Длительность | Начальный сектор | Конечный сектор
    ---------------------------------------------------------------------
       1  |  0:00.00 |    3:32.34   |           0      |      15933
       2  |  3:32.34 |    2:57.03   |       15934      |      29211
       3  |  6:29.37 |    4:01.21   |       29212      |      47307
       4  | 10:30.58 |    4:08.19   |       47308      |      65926
       5  | 14:39.02 |    4:30.49   |       65927      |      86225
       6  | 19:09.51 |    3:45.47   |       86226      |     103147
       7  | 22:55.23 |    3:39.16   |      103148      |     119588
       8  | 26:34.39 |    4:39.65   |      119589      |     140578
       9  | 31:14.29 |    3:31.07   |      140579      |     156410
      10  | 34:45.36 |    3:45.43   |      156411      |     173328
      11  | 38:31.04 |    4:58.06   |      173329      |     195684
      12  | 43:29.10 |    4:19.13   |      195685      |     215122
      13  | 47:48.23 |    3:32.34   |      215123      |     231056
      14  | 51:20.57 |    2:55.51   |      231057      |     244232
      15  | 54:16.33 |    3:45.47   |      244233      |     261154
      16  | 58:02.05 |    4:30.49   |      261155      |     281453
      17  | 62:32.54 |    4:06.19   |      281454      |     299922

Характеристики диапазона извлечения и сообщения об ошибках

Выбранный диапазон

     Имя файла E:\Раздачи\NNMClub-eloychik ®\Анатолий Полотно - 5 aльбомов [NNMClub.to]\2016 - Берег\Анатолий Полотно - Берег.wav

     Пиковый уровень 97.6 %
     Скорость извлечения 6.5 X
     Качество диапазона 100.0 %
     CRC теста FF2B3AE9
     CRC копии FF2B3AE9
     Копирование... OK

Ошибок не произошло

AccurateRip: сводка

Трек  1  отсутствует в базе данных
Трек  2  отсутствует в базе данных
Трек  3  отсутствует в базе данных
Трек  4  отсутствует в базе данных
Трек  5  отсутствует в базе данных
Трек  6  отсутствует в базе данных
Трек  7  отсутствует в базе данных
Трек  8  отсутствует в базе данных
Трек  9  отсутствует в базе данных
Трек 10  отсутствует в базе данных
Трек 11  отсутствует в базе данных
Трек 12  отсутствует в базе данных
Трек 13  отсутствует в базе данных
Трек 14  отсутствует в базе данных
Трек 15  отсутствует в базе данных
Трек 16  отсутствует в базе данных
Трек 17  отсутствует в базе данных

Ни одного трека нет в базе AccurateRip

Конец отчёта

==== Контрольная сумма отчёта A18BB12CF3751D939FC61D6B4256D5E7DB875BBC6224F2F4FD689057259735AB ====

Код: выделить все
REM GENRE Chanson
REM DATE 2016
REM DISCID F10F9E11
REM COMMENT "ExactAudioCopy v1.3"
PERFORMER "Анатолий Полотно"
TITLE "Берег"
REM COMPOSER ""
FILE "Анатолий Полотно - Берег.flac" WAVE
  TRACK 01 AUDIO
    TITLE "Далекий берег"
    PERFORMER "Анатолий Полотно"
    REM COMPOSER ""
    FLAGS DCP
    INDEX 01 00:00:00
  TRACK 02 AUDIO
    TITLE "Их умом Россию не понять"
    PERFORMER "Анатолий Полотно"
    REM COMPOSER ""
    FLAGS DCP
    INDEX 00 03:30:34
    INDEX 01 03:32:34
  TRACK 03 AUDIO
    TITLE "Все в порядке"
    PERFORMER "Анатолий Полотно"
    REM COMPOSER ""
    FLAGS DCP
    INDEX 00 06:27:38
    INDEX 01 06:29:37
  TRACK 04 AUDIO
    TITLE "Минуты счастья"
    PERFORMER "Анатолий Полотно"
    REM COMPOSER ""
    FLAGS DCP
    INDEX 00 10:28:58
    INDEX 01 10:30:58
  TRACK 05 AUDIO
    TITLE "О любви"
    PERFORMER "Анатолий Полотно"
    REM COMPOSER ""
    FLAGS DCP
    INDEX 00 14:37:02
    INDEX 01 14:39:02
  TRACK 06 AUDIO
    TITLE "С Днём рождения"
    PERFORMER "Анатолий Полотно"
    REM COMPOSER ""
    FLAGS DCP
    INDEX 00 19:07:51
    INDEX 01 19:09:51
  TRACK 07 AUDIO
    TITLE "Мальдивы"
    PERFORMER "Анатолий Полотно"
    REM COMPOSER ""
    FLAGS DCP
    INDEX 00 22:53:23
    INDEX 01 22:55:23
  TRACK 08 AUDIO
    TITLE "Непогода"
    PERFORMER "Анатолий Полотно"
    REM COMPOSER ""
    FLAGS DCP
    INDEX 00 26:32:39
    INDEX 01 26:34:39
  TRACK 09 AUDIO
    TITLE "Потолкуем, давай"
    PERFORMER "Анатолий Полотно"
    REM COMPOSER ""
    FLAGS DCP
    INDEX 00 31:12:29
    INDEX 01 31:14:29
  TRACK 10 AUDIO
    TITLE "Старое танго"
    PERFORMER "Анатолий Полотно"
    REM COMPOSER ""
    FLAGS DCP
    INDEX 00 34:43:36
    INDEX 01 34:45:36
  TRACK 11 AUDIO
    TITLE "Циферблат"
    PERFORMER "Анатолий Полотно"
    REM COMPOSER ""
    FLAGS DCP
    INDEX 00 38:29:04
    INDEX 01 38:31:04
  TRACK 12 AUDIO
    TITLE "Дорога"
    PERFORMER "Анатолий Полотно"
    REM COMPOSER ""
    FLAGS DCP
    INDEX 00 43:27:10
    INDEX 01 43:29:10
  TRACK 13 AUDIO
    TITLE "Берег (караоке)"
    PERFORMER "Анатолий Полотно"
    REM COMPOSER ""
    FLAGS DCP
    INDEX 00 47:46:23
    INDEX 01 47:48:23
  TRACK 14 AUDIO
    TITLE "Их умом Россию не понять (караоке)"
    PERFORMER "Анатолий Полотно"
    REM COMPOSER ""
    FLAGS DCP
    INDEX 00 51:18:57
    INDEX 01 51:20:57
  TRACK 15 AUDIO
    TITLE "С Днём Рождения! (караоке)"
    PERFORMER "Анатолий Полотно"
    REM COMPOSER ""
    FLAGS DCP
    INDEX 00 54:14:33
    INDEX 01 54:16:33
  TRACK 16 AUDIO
    TITLE "О любви (караоке)"
    PERFORMER "Анатолий Полотно"
    REM COMPOSER ""
    FLAGS DCP
    INDEX 00 58:00:05
    INDEX 01 58:02:05
  TRACK 17 AUDIO
    TITLE "Минуты счастья (караоке)"
    PERFORMER "Анатолий Полотно"
    REM COMPOSER ""
    FLAGS DCP
    INDEX 00 62:30:54
    INDEX 01 62:32:54

Код: выделить все
-----------------------

DON'T MODIFY THIS FILE

-----------------------

PERFORMER: auCDtect Task Manager, ver. 1.6.0 RC1 build 1.6.0.1
Copyright (c) 2008-2010 y-soft. All rights reserved
http://y-soft.org

ANALYZER: auCDtect: CD records authenticity detector, version 0.8.2
Copyright (c) 2004 Oleg Berngardt. All rights reserved.
Copyright (c) 2004 Alexander Djourik. All rights reserved.

FILE: Анатолий Полотно - Берег.flac
  Size: 499939583 Hash: 5DC3FBDB9B358F1A4436F7C647D6FFF4 Accuracy: -m0
  Conclusion: CDDA 100%
  Signature: F0B4145A954EFC90CF37F7E5E0A2AA8E21D23082

#77Издание: United Music Group-UMG17 CD-1160
Продолжительность - 00:53:52
Треклист:
01. Русская судьба
02. Россия живет
03. Традиции
04. Кукиш
05. За губернаторов
06. Криминала нет
07. Чирибим-чирибом
08. Сосед
09. На полярке
10. Раз женился- не вой
11. Адам и Ева
12. За славян
13. Россия живет (караоке версия)
14. Раз женился- не вой (караоке версия)
15. За губернаторов (караоке версия)
Код: выделить все
Exact Audio Copy V1.3 from 2. September 2016

Отчёт EAC об извлечении, выполненном 14. марта 2018, 19:21

Анатолий Полотно / Русская судьба

Дисковод: ASUS    DRW-24D5MT   Adapter: 1  ID: 0

Режим чтения                 : Достоверность
Использование точного потока : Да
Отключение кэша аудио        : Да
Использование указателей C2  : Нет

Коррекция смещения при чтении                     : 6
Способность читать области Lead-in и Lead-out     : Нет
Заполнение пропущенных сэмплов тишиной            : Да
Удаление блоков с тишиной в начале и конце        : Нет
При вычислениях CRC использовались нулевые сэмплы : Да
Интерфейс                                         : Встроенный Win32-интерфейс для Win NT/2000

Выходной формат          : Пользовательский кодировщик
Выбранный битрейт        : 128 kBit/s
Качество                 : Высокий
Добавление ID3-тега      : Нет
Утилита сжатия           : C:\Program Files (x86)\Exact Audio Copy\Flac\flac.exe
Дополнительные параметры : -V -8 -T "Date=%year%" -T "Genre=%genre%" %source%

TOC извлечённого CD

     Трек |   Старт  | Длительность | Начальный сектор | Конечный сектор
    ---------------------------------------------------------------------
       1  |  0:00.00 |    3:54.65   |           0      |      17614
       2  |  3:54.65 |    3:48.00   |       17615      |      34714
       3  |  7:42.65 |    3:06.65   |       34715      |      48729
       4  | 10:49.55 |    3:40.25   |       48730      |      65254
       5  | 14:30.05 |    3:09.62   |       65255      |      79491
       6  | 17:39.67 |    4:25.04   |       79492      |      99370
       7  | 22:04.71 |    2:27.06   |       99371      |     110401
       8  | 24:32.02 |    3:12.55   |      110402      |     124856
       9  | 27:44.57 |    3:29.00   |      124857      |     140531
      10  | 31:13.57 |    4:05.56   |      140532      |     158962
      11  | 35:19.38 |    3:49.32   |      158963      |     176169
      12  | 39:08.70 |    3:41.48   |      176170      |     192792
      13  | 42:50.43 |    3:48.00   |      192793      |     209892
      14  | 46:38.43 |    4:05.56   |      209893      |     228323
      15  | 50:44.24 |    3:07.62   |      228324      |     242410

Характеристики диапазона извлечения и сообщения об ошибках

Выбранный диапазон

     Имя файла E:\Раздачи\NNMClub-eloychik ®\Анатолий Полотно - 11 aльбомов [NNM-CLUB.ME]\2018 - Русская судьба\Анатолий Полотно - Русская судьба.wav

     Пиковый уровень 96.4 %
     Скорость извлечения 3.2 X
     Качество диапазона 100.0 %
     CRC теста DDB9B3F7
     CRC копии DDB9B3F7
     Копирование... OK

Ошибок не произошло

AccurateRip: сводка

Трек  1  отсутствует в базе данных
Трек  2  отсутствует в базе данных
Трек  3  отсутствует в базе данных
Трек  4  отсутствует в базе данных
Трек  5  отсутствует в базе данных
Трек  6  отсутствует в базе данных
Трек  7  отсутствует в базе данных
Трек  8  отсутствует в базе данных
Трек  9  отсутствует в базе данных
Трек 10  отсутствует в базе данных
Трек 11  отсутствует в базе данных
Трек 12  отсутствует в базе данных
Трек 13  отсутствует в базе данных
Трек 14  отсутствует в базе данных
Трек 15  отсутствует в базе данных

Ни одного трека нет в базе AccurateRip

Конец отчёта

==== Контрольная сумма отчёта 6CFC5CEC5C7FD6A93C83C1CCC270F99D4F08DC5B25B39AF950BA6D20A19EA126 ====

Код: выделить все
REM GENRE Chanson
REM DATE 2018
REM DISCID BB0CA00F
REM COMMENT "ExactAudioCopy v1.3"
PERFORMER "Анатолий Полотно"
TITLE "Русская судьба"
REM COMPOSER ""
FILE "Анатолий Полотно - Русская судьба.flac" WAVE
  TRACK 01 AUDIO
    TITLE "Русская судьба"
    PERFORMER "Анатолий Полотно"
    REM COMPOSER ""
    FLAGS DCP
    INDEX 01 00:00:00
  TRACK 02 AUDIO
    TITLE "Россия живет"
    PERFORMER "Анатолий Полотно"
    REM COMPOSER ""
    FLAGS DCP
    INDEX 00 03:52:65
    INDEX 01 03:54:65
  TRACK 03 AUDIO
    TITLE "Традиции"
    PERFORMER "Анатолий Полотно"
    REM COMPOSER ""
    FLAGS DCP
    INDEX 00 07:40:65
    INDEX 01 07:42:65
  TRACK 04 AUDIO
    TITLE "Кукиш"
    PERFORMER "Анатолий Полотно"
    REM COMPOSER ""
    FLAGS DCP
    INDEX 00 10:47:55
    INDEX 01 10:49:55
  TRACK 05 AUDIO
    TITLE "За губернаторов"
    PERFORMER "Анатолий Полотно"
    REM COMPOSER ""
    FLAGS DCP
    INDEX 00 14:28:05
    INDEX 01 14:30:05
  TRACK 06 AUDIO
    TITLE "Криминала нет"
    PERFORMER "Анатолий Полотно"
    REM COMPOSER ""
    FLAGS DCP
    INDEX 00 17:37:67
    INDEX 01 17:39:67
  TRACK 07 AUDIO
    TITLE "Чирибим-чирибом"
    PERFORMER "Анатолий Полотно"
    REM COMPOSER ""
    FLAGS DCP
    INDEX 00 22:02:71
    INDEX 01 22:04:71
  TRACK 08 AUDIO
    TITLE "Сосед"
    PERFORMER "Анатолий Полотно"
    REM COMPOSER ""
    FLAGS DCP
    INDEX 00 24:30:02
    INDEX 01 24:32:02
  TRACK 09 AUDIO
    TITLE "На полярке"
    PERFORMER "Анатолий Полотно"
    REM COMPOSER ""
    FLAGS DCP
    INDEX 00 27:42:57
    INDEX 01 27:44:57
  TRACK 10 AUDIO
    TITLE "Раз женился- не вой"
    PERFORMER "Анатолий Полотно"
    REM COMPOSER ""
    FLAGS DCP
    INDEX 00 31:11:57
    INDEX 01 31:13:57
  TRACK 11 AUDIO
    TITLE "Адам и Ева"
    PERFORMER "Анатолий Полотно"
    REM COMPOSER ""
    FLAGS DCP
    INDEX 00 35:17:38
    INDEX 01 35:19:38
  TRACK 12 AUDIO
    TITLE "За славян"
    PERFORMER "Анатолий Полотно"
    REM COMPOSER ""
    FLAGS DCP
    INDEX 00 39:06:70
    INDEX 01 39:08:70
  TRACK 13 AUDIO
    TITLE "Россия живет (караоке версия)"
    PERFORMER "Анатолий Полотно"
    REM COMPOSER ""
    FLAGS DCP
    INDEX 00 42:48:43
    INDEX 01 42:50:43
  TRACK 14 AUDIO
    TITLE "Раз женился- не вой (караоке версия)"
    PERFORMER "Анатолий Полотно"
    REM COMPOSER ""
    FLAGS DCP
    INDEX 00 46:36:43
    INDEX 01 46:38:43
  TRACK 15 AUDIO
    TITLE "За губернаторов (караоке версия)"
    PERFORMER "Анатолий Полотно"
    REM COMPOSER ""
    FLAGS DCP
    INDEX 00 50:42:24
    INDEX 01 50:44:24

Код: выделить все
-----------------------

DON'T MODIFY THIS FILE

-----------------------

PERFORMER: auCDtect Task Manager, ver. 1.6.0 RC1 build 1.6.0.1
Copyright (c) 2008-2010 y-soft. All rights reserved
http://y-soft.org

ANALYZER: auCDtect: CD records authenticity detector, version 0.8.2
Copyright (c) 2004 Oleg Berngardt. All rights reserved.
Copyright (c) 2004 Alexander Djourik. All rights reserved.

FILE: Анатолий Полотно - Русская судьба.flac
  Size: 405154495 Hash: 63A00E6497A56891C824850D3B47352B Accuracy: -m0
  Conclusion: CDDA 100%
  Signature: 3B4F2BA7B5B1E363F77DF5A56B9B13A6AB980D67


#7
Код: Выделить всё
[b]Поглощение/вытеснение [/b]
[b]Только с согласия релизера[/b]
[b][u][i]Pashketan[/b][/i][/u]
 
Не забывайте говорить Спасибо. Не уходите с раздачи!   
Торрент: Зарегистрирован [19 май 2018, 15:17] Скачать торрент
Скачать торрент
[ Размер 34.41 КБ / Просмотров 17 ]
Статус:
Проверен
 
.torrent скачан: 0 раз
Хэш: be6e6d324c96e3aae714dd5e434713d326e2cb96
Размер: 4.86 ГБ (5 213 387 422 байт)
Стать Автором раздачи
 
 
Раздал: 100 ГБ
Скачал: 0 байт
Ратио: Seed.
Сообщения: 112732
Зарегистрирован: 09 апр 2015, 22:31


  • Похожие торренты
    Ответы
    Просмотры
    Последнее сообщение

Вернуться в Отечественный шансон (lossless)

Ресурс не предоставляет электронные версии произведений, а занимается лишь коллекционированием и каталогизацией ссылок, присылаемых и публикуемых на форуме нашими читателями. Если вы являетесь правообладателем какого-либо представленного материала и не желаете чтобы ссылка на него находилась в нашем каталоге, свяжитесь с нами и мы незамедлительно удалим её. Файлы для обмена на трекере предоставлены пользователями сайта, и администрация не несёт ответственности за их содержание. Просьба не заливать файлы, защищенные авторскими правами, а также файлы нелегального содержания!