Above & Beyond Acoustic: Live At The Hollywood Bowl [2018, Trance / Acoustic, Web-DL, 720p]

 
 Статистика раздачи 
Размер: 2.37 ГБ   |  Зарегистрирован: 19 май 2018, 00:46   |   .torrent скачан: 0 раз
Сидеров: 1  [ 0 байт/сек ]     Личеров: 0  [ 0 байт/сек ]  
  

Above & Beyond Acoustic: Live At The Hollywood Bowl [2018, Trance / Acoustic, Web-DL, 720p]

Сообщение Nakazhu » 19 май 2018, 00:46

Above & Beyond Acoustic: Live At The Hollywood Bowl
Жанр: Trance / Acoustic
Продолжительность: 01:55:17
Год выпуска: 2018
Описание: In 2016, Jono Grant, Tony McGuinness and Paavo Siljamäki (aka Above & Beyond - one of the world's most successful dance acts) left the electronic music world behind, embarking on an ambitious 'acoustic' world tour that culminated at the Hollywood Bowl, Los Angeles.
Треклист :
01. Hello 4:11
02. We're All We Need 5:39
03. Blue Sky Action 4:56
04. Miracle 4:52
05. Sticky Fingers 4:48
06. Counting Down The Days / Liquid Love 5:51
07. Satellite / Stealing Time 5:02
08. No One On Earth 4:20
09. On My Way To Heaven 5:19
10. Another Chance 4:49
11. All Over The World 5:02
12. Peace Of Mind 6:04
13. Black Room Boy 4:28
14. Thing Called Love 4:34
15. Save Me 5:30
16. Alone Tonight 5:09
17. On A Good Day 5:00
18. Sun & Moon 5:01
19. Good For Me 7:43
https://www.amazon.com/Above-Beyond-Acoustic-Live-Hollywood/dp/B07CRY2H7Y
Качество: Web-DL
Разрешение видео/развертка: 720p
Контейнер: MKV
Видео кодек: H.264
Аудио кодек: AC3
Видео: AVC, 1280x528 (2.40:1), 25.000 fps, 2 665 Kbps
Аудио: E-AC-3, 48.0 KHz, 2 ch, 224 Kbps
Код: Выделить всё
General
Unique ID                                : 119673187871576494791496791664508907229 (0x5A0837B50A78350B06F9440B2929AEDD)
Complete name                            : C:\Above.and.Beyond.Acoustic.Live.At.The.Hollywood.Bowl.2018.720p.AMZN.WEB-DL.DDP2.0.H.264-NTG.mkv
Format                                   : Matroska
Format version                           : Version 4 / Version 2
File size                                : 2.37 GiB
Duration                                 : 1 h 55 min
Overall bit rate mode                    : Variable
Overall bit rate                         : 2 947 kb/s
Encoded date                             : UTC 2018-05-17 04:45:32
Writing application                      : mkvmerge v21.0.0 ('Tardigrades Will Inherit The Earth') 64-bit
Writing library                          : libebml v1.3.5 + libmatroska v1.4.8
Video
ID                                       : 1
Format                                   : AVC
Format/Info                              : Advanced Video Codec
Format profile                           : High@L3.1
Format settings                          : CABAC / 5 Ref Frames
Format settings, CABAC                   : Yes
Format settings, RefFrames               : 5 frames
Codec ID                                 : V_MPEG4/ISO/AVC
Duration                                 : 1 h 55 min
Bit rate mode                            : Variable
Bit rate                                 : 2 721 kb/s
Maximum bit rate                         : 4 500 kb/s
Width                                    : 1 280 pixels
Height                                   : 528 pixels
Display aspect ratio                     : 2.40:1
Original display aspect ratio            : 2.40:1
Frame rate mode                          : Constant
Frame rate                               : 25.000 FPS
Color space                              : YUV
Chroma subsampling                       : 4:2:0
Bit depth                                : 8 bits
Scan type                                : Progressive
Bits/(Pixel*Frame)                       : 0.161
Stream size                              : 2.19 GiB (92%)
Default                                  : Yes
Forced                                   : No
Color range                              : Limited
Color primaries                          : BT.709
Transfer characteristics                 : BT.709
Matrix coefficients                      : BT.709
Audio
ID                                       : 2
Format                                   : E-AC-3
Format/Info                              : Enhanced Audio Coding 3
Codec ID                                 : A_EAC3
Duration                                 : 1 h 55 min
Bit rate mode                            : Constant
Bit rate                                 : 224 kb/s
Channel(s)                               : 2 channels
Channel positions                        : Front: L R
Sampling rate                            : 48.0 kHz
Frame rate                               : 187.500 FPS (256 SPF)
Compression mode                         : Lossy
Stream size                              : 185 MiB (8%)
Language                                 : English
Service kind                             : Complete Main
Default                                  : Yes
Forced                                   : No
Text #1
ID                                       : 3
Format                                   : UTF-8
Codec ID                                 : S_TEXT/UTF8
Codec ID/Info                            : UTF-8 Plain Text
Duration                                 : 1 h 53 min
Bit rate                                 : 37 b/s
Count of elements                        : 911
Stream size                              : 31.0 KiB (0%)
Language                                 : English
Default                                  : No
Forced                                   : No
Text #2
ID                                       : 4
Format                                   : UTF-8
Codec ID                                 : S_TEXT/UTF8
Codec ID/Info                            : UTF-8 Plain Text
Duration                                 : 1 h 54 min
Bit rate                                 : 39 b/s
Count of elements                        : 1013
Stream size                              : 33.5 KiB (0%)
Title                                    : SDH
Language                                 : English
Default                                  : No
Forced                                   : No
 
Не забывайте говорить Спасибо. Не уходите с раздачи!   
Торрент: Зарегистрирован [19 май 2018, 00:46] Скачать торрент
Скачать торрент
[ Размер 12.38 КБ / Просмотров 5 ]
Статус:
Проверен
 
.torrent скачан: 0 раз
Хэш: e68f7bea7468f5d341b54fd6b166439c5aa8b587
Размер: 2.37 ГБ (2 548 242 760 байт)
Стать Автором раздачи
 
 
Раздал: 0 байт
Скачал: 0 байт
Ратио: Inf.
Сообщения: 487468
Зарегистрирован: 17 апр 2014, 13:57


  • Похожие торренты
    Ответы
    Просмотры
    Последнее сообщение

Вернуться в Электронная музыка (HD Video)

Ресурс не предоставляет электронные версии произведений, а занимается лишь коллекционированием и каталогизацией ссылок, присылаемых и публикуемых на форуме нашими читателями. Если вы являетесь правообладателем какого-либо представленного материала и не желаете чтобы ссылка на него находилась в нашем каталоге, свяжитесь с нами и мы незамедлительно удалим её. Файлы для обмена на трекере предоставлены пользователями сайта, и администрация не несёт ответственности за их содержание. Просьба не заливать файлы, защищенные авторскими правами, а также файлы нелегального содержания!
cron