(Drum'n'bass, Neurofunk, Santoku Records) [WEB] VA - Jutsu LP (SAN023) - 2017, FLAC (tracks), lossless

 
 Статистика раздачи 
Размер: 353.31 МБ   |  Зарегистрирован: 18 май 2018, 23:45   |   .torrent скачан: 0 раз
Сидеров: 1  [ 0 байт/сек ]     Личеров: 0  [ 0 байт/сек ]  
  

(Drum'n'bass, Neurofunk, Santoku Records) [WEB] VA - Jutsu LP (SAN023) - 2017, FLAC (tracks), lossless

Сообщение Nakazhu » 18 май 2018, 23:45

VA - Jutsu LP (SAN023)
Жанр: Drum'n'bass, Neurofunk
Носитель: WEB
Страна-производитель диска (релиза): USA
Год издания: 2017
Издатель (лейбл): Santoku Records
Номер по каталогу: SAN023
Аудиокодек: FLAC (*.flac)
Тип рипа: tracks
Битрейт аудио: lossless
Продолжительность: 00:48:27
Источник (релизер): bandcamp
Наличие сканов в содержимом раздачи: нет
Треклист:
01 Mayhem - All I Do (Gridlok Remix VIP) 4:17
02 Mayhem & Logam - Centuria (Amoss Remix) 4:51
03 Mean Teeth - Leviathan (A-Cray Remix) 3:20
04 Logam - Hypnotic (Quadrant & Iris Remix) 5:37
05 Mayhem & Logam - Infinity (Nickbee Remix) 4:57
06 Mayhem & Logam - Ouroboros (Jade Remix) 5:40
07 Des McMahon - The Hawk (Mean Teeth Remix) 5:06
08 Hajimari - Analgesic (Zero T Remix) 4:50
09 Mayhem & Logam - Orion (Myselor Remix) 5:24
10 Des McMahon - Delirium (Logam Remix) 4:25
Код: Выделить всё
foobar2000 1.3.15 / Dynamic Range Meter 1.1.1
log date: 2018-05-08 23:53:46
--------------------------------------------------------------------------------
Analyzed: Des McMahon / Jutsu LP (1-2)
          Hajimari  / Jutsu LP (3)
          Logam / Jutsu LP (4)
          Mayhem & Logam / Jutsu LP (5-8)
          Mayhem / Jutsu LP (9)
          Mean Teeth / Jutsu LP (10)
--------------------------------------------------------------------------------
DR         Peak         RMS     Duration Track
--------------------------------------------------------------------------------
DR4       -0.05 dB    -6.26 dB      5:06 07-The Hawk (Mean Teeth Remix)
DR2       -0.05 dB    -3.75 dB      4:25 10-Delirium (Logam Remix)
DR5        0.00 dB    -7.05 dB      4:50 08-Analgesic (Zero T Remix)
DR3        0.00 dB    -4.65 dB      5:37 04-Hypnotic (Quadrant & Iris Remix)
DR3        0.00 dB    -5.12 dB      4:51 02-Centuria (Amoss Remix)
DR3        0.00 dB    -4.38 dB      4:57 05-Infinity (Nickbee Remix)
DR2        0.00 dB    -4.49 dB      5:40 06-Ouroboros (Jade Remix)
DR3        0.00 dB    -4.86 dB      5:24 09-Orion (Myselor Remix)
DR2        0.00 dB    -3.51 dB      4:17 01-All I Do (Gridlok Remix VIP)
DR3       -0.01 dB    -4.25 dB      3:20 03-Leviathan (A-Cray Remix)
--------------------------------------------------------------------------------
Number of tracks:  10
Official DR value: DR3
Samplerate:        44100 Hz
Channels:          2
Bits per sample:   16
Bitrate:           1025 kbps
Codec:             FLAC
================================================================================
 
Не забывайте говорить Спасибо. Не уходите с раздачи!   
Торрент: Зарегистрирован [18 май 2018, 23:45] Скачать торрент
Скачать торрент
[ Размер 15.08 КБ / Просмотров 8 ]
Статус:
Проверен
 
.torrent скачан: 0 раз
Хэш: a31e02842917c3368fe3f526ac2e538241ed3bba
Размер: 353.31 МБ (370 468 441 байт)
Стать Автором раздачи
 
 
Раздал: 0 байт
Скачал: 0 байт
Ратио: Inf.
Сообщения: 487468
Зарегистрирован: 17 апр 2014, 13:57


  • Похожие торренты
    Ответы
    Просмотры
    Последнее сообщение

Вернуться в Drum & Bass, Jungle (lossless)

Ресурс не предоставляет электронные версии произведений, а занимается лишь коллекционированием и каталогизацией ссылок, присылаемых и публикуемых на форуме нашими читателями. Если вы являетесь правообладателем какого-либо представленного материала и не желаете чтобы ссылка на него находилась в нашем каталоге, свяжитесь с нами и мы незамедлительно удалим её. Файлы для обмена на трекере предоставлены пользователями сайта, и администрация не несёт ответственности за их содержание. Просьба не заливать файлы, защищенные авторскими правами, а также файлы нелегального содержания!
cron