У меня нет друга (1988) WEBRip [H.264/1080p-LQ]

 
 Статистика раздачи 
Размер: 530.35 МБ   |  Зарегистрирован: 18 май 2018, 17:34   |   .torrent скачан: 0 раз
Сидеров: 1  [ 0 байт/сек ]     Личеров: 0  [ 0 байт/сек ]  
  

У меня нет друга (1988) WEBRip [H.264/1080p-LQ]

Сообщение explosiveone » 18 май 2018, 17:34

У меня нет друга (1988) WEBRip [H.264/1080p-LQ]

Производство: СССР / Свердловская киностудия
Жанр: Короткометражный, драма

Режиссер: Алексей Балабанов
Актеры: Егор Белкин, Настя Полева, Ольга Беляева

Описание:
Короткометражный художественный фильм, снятый в 1988 году. Одна из первых работ кинорежиссёра Алексея Балабанова, в то время ассистента Свердловской киностудии. Фильм является курсовой работой, снятой во время учёбы на Высших курсах сценаристов и режиссёров; материалы фильма стали базой для дипломной работы режиссёра, фильма «Настя и Егор» (1989).



Релиз от: Aлexandr
Продолжительность: 00:23:07
Качество видео: WEBRip
Субтитры: Отсутствуют

Видео: AVC/H.264, 1920x1024, ~3010 Kbps
Аудио: AC3, 2 ch, 192 Kbps
Код: Выделить всё
Общее
Уникальный идентификатор                 : 193434381812769159438388836987328047378 (0x91861B589A5EA10EDD82A11974B0A912)
Полное имя                               : D:\У меня нет друга (1988).by.Алехаndr.mkv
Формат                                   : Matroska
Версия формата                           : Version 4 / Version 2
Размер файла                             : 530 Мбайт
Продолжительность                        : 23 м. 7 с.
Общий поток                              : 3206 Кбит/сек
Дата кодирования                         : UTC 2018-05-18 10:55:16
Программа кодирования                    : mkvmerge v23.0.0 ('The Bride Said No') 64-bit
Библиотека кодирования                   : libebml v1.3.6 + libmatroska v1.4.9 / Lavf57.71.100

Видео
Идентификатор                            : 1
Формат                                   : AVC
Формат/Информация                        : Advanced Video Codec
Профиль формата                          : Main@L4
Настройки формата                        : CABAC / 1 Ref Frames
Параметр CABAC формата                   : Да
Параметр RefFrames формата               : 1 кадр
Идентификатор кодека                     : V_MPEG4/ISO/AVC
Продолжительность                        : 23 м. 7 с.
Битрейт                                  : 3012 Кбит/сек
Ширина                                   : 1920 пикселей
Высота                                   : 1024 пикселя
Соотношение сторон                       : 1,85:1
Режим частоты кадров                     : Постоянный
Частота кадров                           : 25,000 кадров/сек
Цветовое пространство                    : YUV
Субдискретизация насыщенности            : 4:2:0
Битовая глубина                          : 8 бит
Тип развёртки                            : Прогрессивная
Бит/(Пиксели*Кадры)                      : 0.061
Размер потока                            : 498 Мбайт (94%)
Default                                  : Да
Forced                                   : Нет

Аудио
Идентификатор                            : 2
Формат                                   : AC-3
Формат/Информация                        : Audio Coding 3
Идентификатор кодека                     : A_AC3
Продолжительность                        : 23 м. 7 с.
Вид битрейта                             : Постоянный
Битрейт                                  : 192 Кбит/сек
Каналы                                   : 2 канала
Расположение каналов                     : Front: L R
Частота                                  : 48,0 КГц
Частота кадров                           : 31,250 кадров/сек (1536 SPF)
Битовая глубина                          : 16 бит
Метод сжатия                             : С потерями
Размер потока                            : 31,8 Мбайт (6%)
ServiceKind/String                       : Complete Main
Default                                  : Да
Forced                                   : Нет

Скриншоты:




Время раздачи: 24/7 (круглосуточно) (до появления первых 3-5 скачавших)
 
Не забывайте говорить Спасибо. Не уходите с раздачи!   
Торрент: Зарегистрирован [18 май 2018, 17:34] Для скачивания .torrent
необходима регистрация
Или скачать с помощью
MediaGet
Статус:
Проверен
 
.torrent скачан: 0 раз
Хэш: ec519929ff49bbd3121ab302a8b5535911e3d2e9
Размер: 530.35 МБ (556 117 484 байт)
Стать Автором раздачи
 
 
Раздал: 100 ГБ
Скачал: 0 байт
Ратио: Seed.
Сообщения: 101394
Зарегистрирован: 09 апр 2015, 22:31


  • Похожие торренты
    Ответы
    Просмотры
    Последнее сообщение

Вернуться в Кино СССР, Советской России, Российской республики (1917-1991)

Ресурс не предоставляет электронные версии произведений, а занимается лишь коллекционированием и каталогизацией ссылок, присылаемых и публикуемых на форуме нашими читателями. Если вы являетесь правообладателем какого-либо представленного материала и не желаете чтобы ссылка на него находилась в нашем каталоге, свяжитесь с нами и мы незамедлительно удалим её. Файлы для обмена на трекере предоставлены пользователями сайта, и администрация не несёт ответственности за их содержание. Просьба не заливать файлы, защищенные авторскими правами, а также файлы нелегального содержания!