Степан Кольчугин (1957) VHSRip

 
 Статистика раздачи 
Размер: 1.27 ГБ   |  Зарегистрирован: 18 май 2018, 00:13   |   .torrent скачан: 0 раз
Сидеров: 1  [ 0 байт/сек ]     Личеров: 0  [ 0 байт/сек ]  
  

Степан Кольчугин (1957) VHSRip

Сообщение explosiveone » 18 май 2018, 00:13

Степан Кольчугин (1957) VHSRip

Производство: СССР, Ленфильм
Жанр: Драма

Режиссер: Тамара Родионова
Актеры: Сергей Подмастерьев, Нина Мамаева, Юлиан Панич, Людмила Макарова, Нина Никитина, Герман Хованов, Александр Чекаевский, Леонид Рахленко, Николай Тимофеев, Аркадий Трусов, Павел Панков, Пантелеймон Крымов, Ольга Казико, Леня Львов, Владимир Волчик, Виктор Гераскин, Анна Заржицкая, Михаил Пуговкин, Александр Суснин

Описание:
По первой части одноименного романа Василия Гроссмана.Действие фильма происходит в шахтерском поселке Юзовке в канун 1905 года. Подросток Степка, поступив на шахту, узнает о существовании революционного подполья и включается в его борьбу.


Возраст: этот продукт не был классифицирован

Продолжительность: 01:24:59
Качество видео: VHSRip

Видео: DivX 5, 720x576, ~2005 Kbps
Аудио: MP3, 2 ch, 128 Kbps
Код: Выделить всё
Общее
Полное имя                               : Z:\Степан Кольчугин (1957) VHSRip.avi
Формат                                   : AVI
Формат/Информация                        : Audio Video Interleave
Размер файла                             : 1,27 Гбайт
Продолжительность                        : 1 ч. 24 м.
Общий поток                              : 2143 Кбит/сек
Программа кодирования                    : VirtualDubModRus 1.5.10.2 (build 2540/release)
Библиотека кодирования                   : VirtualDubMod build 2540/release

Видео
Идентификатор                            : 0
Формат                                   : MPEG-4 Visual
Настройки формата                        : BVOP1
Параметр BVOP формата                    : 1
Параметр QPel формата                    : Нет
Параметр GMC формата                     : Без точки перехода
Параметр матрицы формата                 : Default (H.263)
Режим смешивания                         : Сжатый битовый поток
Идентификатор кодека                     : DX50
Идентификатор кодека/Подсказка           : DivX 5
Продолжительность                        : 1 ч. 24 м.
Битрейт                                  : 2005 Кбит/сек
Номинальный битрейт                      : 4854 Кбит/сек
Ширина                                   : 720 пикселей
Высота                                   : 576 пикселей
Соотношение сторон                       : 5:4
Частота кадров                           : 25,000 кадров/сек
Стандарт вещания                         : PAL
Цветовое пространство                    : YUV
Субдискретизация насыщенности            : 4:2:0
Битовая глубина                          : 8 бит
Тип развёртки                            : Прогрессивная
Метод сжатия                             : С потерями
Бит/(Пиксели*Кадры)                      : 0.193
Размер потока                            : 1,19 Гбайт (94%)
Библиотека кодирования                   : DivX 6.8.5 (UTC 2009-08-20)

Аудио
Идентификатор                            : 1
Формат                                   : MPEG Audio
Версия формата                           : Version 1
Профиль формата                          : Layer 3
Настройки формата                        : Joint stereo / MS Stereo
Идентификатор кодека                     : 55
Идентификатор кодека/Подсказка           : MP3
Продолжительность                        : 1 ч. 24 м.
Вид битрейта                             : Постоянный
Битрейт                                  : 128 Кбит/сек
Каналы                                   : 2 канала
Частота                                  : 48,0 КГц
Метод сжатия                             : С потерями
Размер потока                            : 77,8 Мбайт (6%)
Выравнивание                             : Разделение по промежуткам
Продолжительность промежутка             : 40  мс. (1,00 видеокадр)
Время предзагрузки промежутка            : 500  мс.

Скриншоты:




Время раздачи: С 18:00 до 23:00 (до появления первых 3-5 скачавших)
 
Не забывайте говорить Спасибо. Не уходите с раздачи!   
Торрент: Зарегистрирован [18 май 2018, 00:13] Для скачивания .torrent
необходима регистрация
Или скачать с помощью
MediaGet
Статус:
Проверен
 
.torrent скачан: 0 раз
Хэш: 20d9b0220277c2a17d40784c876cbd701d2e7a79
Размер: 1.27 ГБ (1 365 870 592 байт)
Стать Автором раздачи
 
 
Раздал: 100 ГБ
Скачал: 0 байт
Ратио: Seed.
Сообщения: 100000
Зарегистрирован: 09 апр 2015, 22:31


  • Похожие торренты
    Ответы
    Просмотры
    Последнее сообщение

Вернуться в Кино СССР, Советской России, Российской республики (1917-1991)

Ресурс не предоставляет электронные версии произведений, а занимается лишь коллекционированием и каталогизацией ссылок, присылаемых и публикуемых на форуме нашими читателями. Если вы являетесь правообладателем какого-либо представленного материала и не желаете чтобы ссылка на него находилась в нашем каталоге, свяжитесь с нами и мы незамедлительно удалим её. Файлы для обмена на трекере предоставлены пользователями сайта, и администрация не несёт ответственности за их содержание. Просьба не заливать файлы, защищенные авторскими правами, а также файлы нелегального содержания!