Человек из черной волги (1990) SATRip

 
 Статистика раздачи 
Размер: 1.37 ГБ   |  Зарегистрирован: 18 май 2018, 00:11   |   .torrent скачан: 0 раз
Сидеров: 1  [ 0 байт/сек ]     Личеров: 0  [ 0 байт/сек ]  
  

Человек из черной волги (1990) SATRip

Сообщение explosiveone » 18 май 2018, 00:11

Человек из черной волги (1990) SATRip

Производство: СССР, Беларусьфильм
Жанр: Драма, Криминал

Режиссер: Николай Лукьянов
Актеры: Юрий Демич, Людмила Николаева, Николай Гравшин, Борис Иванов, Владимир Седов, Владимир Новиков, Юрий Казючиц, Ростислав Янковский, Александр Ткаченок, Андрей Анкудинов, Вадим Вильский, Наталья Лабурцева, Александр Денисов, Жанна Четверикова, Вячеслав Солодилов, Виктор Лебедев

Описание:
По мотивам романа А. Молчанова "Новый год в октябре".Главный герой фильма — обаятельный и целеустремленный карьерист. Стараясь максимально использовать служебное положение отца — крупного ученого, директора института, он всячески стремится «застолбить» свое место в науке. И в этом стремлении не брезгует ни мошенничеством, ни подлогом, ни даже убийством. Герой фильма приспособленец новейшего, перестроечного образца эпохи позднего СССР – во имя карьеры идет на обман, мошенничество и убийство. Он получает всё, к чему так упорно стремился: степень доктора, персональную машину и депутатский значок...

http://www.imdb.com/title/tt0465937/?ref_=plg_rt_1
Возраст: 0+ (для любой зрительской аудитории)

Продолжительность: 01:37:11
Качество видео: SATRip

Видео: Xvid, 720х416, ~1898 Kbps
Аудио: MP3, 2 ch, 128 Kbps
Код: Выделить всё
Общее
Полное имя                               : Z:\Человек из черной волги (1990) SATRip.avi
Формат                                   : AVI
Формат/Информация                        : Audio Video Interleave
Размер файла                             : 1,37 Гбайт
Продолжительность                        : 1 ч. 37 м.
Режим общего битрейта                    : Переменный
Общий поток                              : 2014 Кбит/сек
Программа кодирования                    : VirtualDubMod 1.5.4.1 (build 2178/release)
Библиотека кодирования                   : VirtualDubMod build 2178/release

Видео
Идентификатор                            : 0
Формат                                   : MPEG-4 Visual
Профиль формата                          : Advanced Simple@L5
Настройки формата                        : BVOP1 / Custom Matrix
Параметр BVOP формата                    : 1
Параметр QPel формата                    : Нет
Параметр GMC формата                     : Без точки перехода
Параметр матрицы формата                 : Выборочная
Идентификатор кодека                     : XVID
Идентификатор кодека/Подсказка           : XviD
Продолжительность                        : 1 ч. 37 м.
Битрейт                                  : 1898 Кбит/сек
Ширина                                   : 720 пикселей
Высота                                   : 416 пикселей
Соотношение сторон                       : 1,731
Частота кадров                           : 25,000 кадров/сек
Цветовое пространство                    : YUV
Субдискретизация насыщенности            : 4:2:0
Битовая глубина                          : 8 бит
Тип развёртки                            : Прогрессивная
Метод сжатия                             : С потерями
Бит/(Пиксели*Кадры)                      : 0.254
Размер потока                            : 1,29 Гбайт (94%)
Библиотека кодирования                   : XviD 57

Аудио
Идентификатор                            : 1
Формат                                   : MPEG Audio
Версия формата                           : Version 1
Профиль формата                          : Layer 3
Настройки формата                        : Joint stereo / MS Stereo
Идентификатор кодека                     : 55
Идентификатор кодека/Подсказка           : MP3
Продолжительность                        : 1 ч. 37 м.
Вид битрейта                             : Переменный
Битрейт                                  : 103 Кбит/сек
Номинальный битрейт                      : 128 Кбит/сек
Каналы                                   : 2 канала
Частота                                  : 48,0 КГц
Частота кадров                           : 41,667 кадра/сек (1152 SPF)
Метод сжатия                             : С потерями
Задержка видео                           : 24 мс.
Размер потока                            : 71,4 Мбайт (5%)
Выравнивание                             : Разделение по промежуткам
Продолжительность промежутка             : 24  мс. (0,60 видеокадр)
Время предзагрузки промежутка            : 538  мс.
Библиотека кодирования                   : LAME3.98r
Настройки программы                      : -m j -V 4 -q 2 -lowpass 17 --abr 128

Скриншоты:



Время раздачи: С 18:00 до 23:00 (до появления первых 3-5 скачавших)
 
Не забывайте говорить Спасибо. Не уходите с раздачи!   
Торрент: Зарегистрирован [18 май 2018, 00:11] Для скачивания .torrent
необходима регистрация
Или скачать с помощью
MediaGet
Статус:
Проверен
 
.torrent скачан: 0 раз
Хэш: ee849f0b267c5dbc0f8c15fdb54f2e8c2f53e2fc
Размер: 1.37 ГБ (1 468 037 120 байт)
Стать Автором раздачи
 
 
Раздал: 100 ГБ
Скачал: 0 байт
Ратио: Seed.
Сообщения: 101394
Зарегистрирован: 09 апр 2015, 22:31


  • Похожие торренты
    Ответы
    Просмотры
    Последнее сообщение

Вернуться в Кино СССР, Советской России, Российской республики (1917-1991)

Ресурс не предоставляет электронные версии произведений, а занимается лишь коллекционированием и каталогизацией ссылок, присылаемых и публикуемых на форуме нашими читателями. Если вы являетесь правообладателем какого-либо представленного материала и не желаете чтобы ссылка на него находилась в нашем каталоге, свяжитесь с нами и мы незамедлительно удалим её. Файлы для обмена на трекере предоставлены пользователями сайта, и администрация не несёт ответственности за их содержание. Просьба не заливать файлы, защищенные авторскими правами, а также файлы нелегального содержания!