BBC. Глубина (Голубая бездна) / Deep Blue (2003) BDRemux [H.264/1080i]

 
 Статистика раздачи 
Размер: 20.1 ГБ   |  Зарегистрирован: 17 май 2018, 17:52   |   .torrent скачан: 0 раз
Сидеров: 1  [ 0 байт/сек ]     Личеров: 0  [ 0 байт/сек ]  
  

BBC. Глубина (Голубая бездна) / Deep Blue (2003) BDRemux [H.264/1080i]

Сообщение explosiveone » 17 май 2018, 17:52

BBC. Глубина (Голубая бездна) / Deep Blue (2003) BDRemux [H.264/1080i]

Производство: Германия, Великобритания, BBC Natural History, BBC Worldwide, Greenlight Media AG
Жанр: Документальный, познавательный, исследования, океанология

Режиссер: Энди Биатт, Аластер Фовергилл
Участники: Майкл Гэмбон, Дэвид Аттенборо, Пирс Броснан, Жак Перрен, Далик Волониц

Описание:
Уникальный документальный фильм о подводной жизни, ставший невероятно популярным во всём мире. Это чудесное путешествие под водой: от Северного полюса до тропиков, от мелководных коралловых рифов до глубочайших недр океана. Очаровательный мир океанской фауны: опасные акулы, величественные скаты, рыбы всех цветов радуги и захватывающие образы всевозможных форм жизни подводного рая. Этот фильм рассказывает о необычайной жизни в океане: дельфины, киты и акулы, впечатляющая растительность и морские птицы.

http://www.imdb.com/title/tt0365109/?ref_=plg_rt_1

Релиз от: рип boba88
Продолжительность: 01:26:41
Качество видео: BDRemux
Перевод: Одноголосый закадровый, профессиональный
Субтитры: Русские, Английские

Видео: AVC/H.264, 1920x1080, ~30,0 Mbps
Аудио#1: AC3, 6 ch, 448 Kbps | Русский
Аудио#2: AC3, 2 ch, 192 Kbps | Русский
Аудио#3: DTS-HD MA, 6 ch, 1920 Kbps (Core, 1509 Kbps) | Английский
Аудио#4: AC3, 6 ch, 640 Kbps | Английский
Код: Выделить всё
Общее
Уникальный идентификатор                 : 118114717589885782342567581953189712805 (0x58DC11309B299815F53B0DBFC62393A5)
Полное имя                               : F:\КИНО\Deep_Blue_BDRemux.mkv
Формат                                   : Matroska
Версия формата                           : Version 4 / Version 2
Размер файла                             : 20,1 Гбайт
Продолжительность                        : 1 ч. 26 м.
Режим общего битрейта                    : Переменный
Общий поток                              : 33,2 Мбит/сек
Дата кодирования                         : UTC 2018-01-01 10:07:41
Программа кодирования                    : mkvmerge v23.0.0 ('The Bride Said No') 64-bit
Библиотека кодирования                   : libebml v1.3.6 + libmatroska v1.4.9

Видео
Идентификатор                            : 1
Формат                                   : AVC
Формат/Информация                        : Advanced Video Codec
Профиль формата                          : [url=http://nnmclub.to/mailto:High@L4.1]High@L4.1[/url]
Настройки формата                        : CABAC / 4 Ref Frames
Параметр CABAC формата                   : Да
Параметр RefFrames формата               : 4 кадра
Параметр GOP формата                     : M=3, N=24
Идентификатор кодека                     : V_MPEG4/ISO/AVC
Продолжительность                        : 1 ч. 26 м.
Вид битрейта                             : Переменный
Битрейт                                  : 30,0 Мбит/сек
Максимальный битрейт                     : 36,0 Мбит/сек
Ширина                                   : 1920 пикселей
Высота                                   : 1080 пикселей
Соотношение сторон                       : 16:9
Режим частоты кадров                     : Постоянный
Частота кадров                           : 25,000 кадров/сек
Стандарт вещания                         : PAL
Цветовое пространство                    : YUV
Субдискретизация насыщенности            : 4:2:0
Битовая глубина                          : 8 бит
Тип развёртки                            : MBAFF
Метод сохранения типа развёртки          : Чередующиеся поля
Порядок развёртки                        : Верхнее поле первое
Бит/(Пиксели*Кадры)                      : 0.578
Размер потока                            : 18,1 Гбайт (90%)
Default                                  : Да
Forced                                   : Нет
Цветовой диапазон                        : Limited
Основные цвета                           : BT.709
Характеристики трансфера                 : BT.709
Коэффициенты матрицы                     : BT.709

Аудио #1
Идентификатор                            : 2
Формат                                   : AC-3
Формат/Информация                        : Audio Coding 3
Идентификатор кодека                     : A_AC3
Продолжительность                        : 1 ч. 26 м.
Вид битрейта                             : Постоянный
Битрейт                                  : 448 Кбит/сек
Каналы                                   : 6 каналов
Расположение каналов                     : Front: L C R, Side: L R, LFE
Частота                                  : 48,0 КГц
Частота кадров                           : 31,250 кадров/сек (1536 SPF)
Битовая глубина                          : 16 бит
Метод сжатия                             : С потерями
Размер потока                            : 278 Мбайт (1%)
Язык                                     : Russian
ServiceKind/String                       : Complete Main
Default                                  : Да
Forced                                   : Нет

Аудио #2
Идентификатор                            : 3
Формат                                   : AC-3
Формат/Информация                        : Audio Coding 3
Идентификатор кодека                     : A_AC3
Продолжительность                        : 1 ч. 26 м.
Вид битрейта                             : Постоянный
Битрейт                                  : 192 Кбит/сек
Каналы                                   : 2 канала
Расположение каналов                     : Front: L R
Частота                                  : 48,0 КГц
Частота кадров                           : 31,250 кадров/сек (1536 SPF)
Битовая глубина                          : 16 бит
Метод сжатия                             : С потерями
Размер потока                            : 119 Мбайт (1%)
Язык                                     : Russian
ServiceKind/String                       : Complete Main
Default                                  : Нет
Forced                                   : Нет

Аудио #3
Идентификатор                            : 4
Формат                                   : DTS
Формат/Информация                        : Digital Theater Systems
Профиль формата                          : MA / Core
Идентификатор кодека                     : A_DTS
Продолжительность                        : 1 ч. 26 м.
Вид битрейта                             : Переменный / Постоянный
Битрейт                                  : 1920 Кбит/сек / 1509 Кбит/сек
Каналы                                   : 6 каналов
Расположение каналов                     : Front: L C R, Side: L R, LFE
Частота                                  : 48,0 КГц
Частота кадров                           : 93,750 кадра/сек (512 SPF)
Битовая глубина                          : 16 бит
Метод сжатия                             : Без потерь / Lossy
Размер потока                            : 1,17 Гбайт (6%)
Язык                                     : English
Default                                  : Нет
Forced                                   : Нет

Аудио #4
Идентификатор                            : 5
Формат                                   : AC-3
Формат/Информация                        : Audio Coding 3
Идентификатор кодека                     : A_AC3
Продолжительность                        : 1 ч. 26 м.
Вид битрейта                             : Постоянный
Битрейт                                  : 640 Кбит/сек
Каналы                                   : 6 каналов
Расположение каналов                     : Front: L C R, Side: L R, LFE
Частота                                  : 48,0 КГц
Частота кадров                           : 31,250 кадров/сек (1536 SPF)
Битовая глубина                          : 16 бит
Метод сжатия                             : С потерями
Размер потока                            : 397 Мбайт (2%)
Язык                                     : English
ServiceKind/String                       : Complete Main
Default                                  : Нет
Forced                                   : Нет

Текст #1
Идентификатор                            : 6
Формат                                   : PGS
Режим смешивания                         : zlib
Идентификатор кодека                     : S_HDMV/PGS
Идентификатор кодека/Информация          : Picture based subtitle format used on BDs/HD-DVDs
Продолжительность                        : 1 ч. 21 м.
Битрейт                                  : 6493 бит/сек
ElementCount                             : 260
Размер потока                            : 3,76 Мбайт (0%)
Язык                                     : Russian
Default                                  : Да
Forced                                   : Нет

Текст #2
Идентификатор                            : 7
Формат                                   : PGS
Режим смешивания                         : zlib
Идентификатор кодека                     : S_HDMV/PGS
Идентификатор кодека/Информация          : Picture based subtitle format used on BDs/HD-DVDs
Продолжительность                        : 1 ч. 20 м.
Битрейт                                  : 5830 бит/сек
ElementCount                             : 258
Размер потока                            : 3,36 Мбайт (0%)
Язык                                     : English
Default                                  : Нет
Forced                                   : Нет
Кассовые сборы
В США:
$132 261
В других странах:
$19 156 000

Общие сборы:
$19 288 261
Бюджет:
$5 000 000

Скриншоты:





Время раздачи: с 18:00 до 23:00 (до появления первых 3-5 скачавших)
 
Не забывайте говорить Спасибо. Не уходите с раздачи!   
Торрент: Зарегистрирован [17 май 2018, 17:52] Скачать торрент
Скачать торрент
[ Размер 51.06 КБ / Просмотров 6 ]
Статус:
Проверен
 
.torrent скачан: 0 раз
Хэш: b375baefcd95623d4f02ef4d68fabf97756417d3
Размер: 20.1 ГБ (21 582 299 163 байт)
Стать Автором раздачи
 
 
Раздал: 100 ГБ
Скачал: 0 байт
Ратио: Seed.
Сообщения: 103634
Зарегистрирован: 09 апр 2015, 22:31


  • Похожие торренты
    Ответы
    Просмотры
    Последнее сообщение

Вернуться в BBC

Ресурс не предоставляет электронные версии произведений, а занимается лишь коллекционированием и каталогизацией ссылок, присылаемых и публикуемых на форуме нашими читателями. Если вы являетесь правообладателем какого-либо представленного материала и не желаете чтобы ссылка на него находилась в нашем каталоге, свяжитесь с нами и мы незамедлительно удалим её. Файлы для обмена на трекере предоставлены пользователями сайта, и администрация не несёт ответственности за их содержание. Просьба не заливать файлы, защищенные авторскими правами, а также файлы нелегального содержания!