Красный воробей / Red Sparrow (2018) BDRip [H.264/720p-LQ] [DE, FR, RU, EN / DE, FR, RU, EN Sub]

 
 Статистика раздачи 
Размер: 3.19 ГБ   |  Зарегистрирован: 17 май 2018, 10:34   |   .torrent скачан: 0 раз
Сидеров: 1  [ 0 байт/сек ]     Личеров: 0  [ 0 байт/сек ]  
  

Красный воробей / Red Sparrow (2018) BDRip [H.264/720p-LQ] [DE, FR, RU, EN / DE, FR, RU, EN Sub]

Сообщение explosiveone » 17 май 2018, 10:34

Красный воробей / Red Sparrow (2018) BDRip [H.264/720p-LQ] [DE, FR, RU, EN / DE, FR, RU, EN Sub]

Производство: США / Chernin Entertainment, Film Rites, Soundtrack New York
Жанр: Триллер, Драма, Детектив

Режиссер: Фрэнсис Лоуренс
Продюсер: Питер Чернин, Дэвид Рэди, Дженно Топпинг, ...
Актеры: Дженнифер Лоуренс, Джоэл Эдгертон, Маттиас Шонартс, Шарлотта Рэмплинг, Мэри-Луиз Паркер, Киаран Хайндс, Джоэли Ричардсон, Билл Кэмп, Джереми Айронс, Текла Рютен

Описание:
После вынужденного окончания карьеры из-за профессиональной травмы Доминика Егорова и ее мать сталкиваются с мрачным и неопределенным будущим. Героиня соглашается стать рекрутом в Школе Воробьев, секретной службе, которая обучает уникальных молодых людей использовать свое тело и ум в качестве опаснейшего оружия. После долгого садистского обучения девушка превращается в самого опасного Воробья за всю историю секретной службы. Теперь бывшая балерина должна примирить в себе человека, которым она была, и силу, которой она овладела, со своей собственной жизнью и жизнью всех, кто ей дорог. В том числе, американского агента ЦРУ, пытающегося убедить ее, что он единственный человек, которому она может доверять.

http://www.imdb.com/title/tt2873282/?ref_=plg_rt_1
Возраст: 18+ (зрителям, достигшим 18 лет. запрещено для детей)
Рейтинг MPAA: R (лицам до 17 лет обязательно присутствие взрослого)

Продолжительность: 02:20:13
Качество видео: BDRip 720p
Язык озвучки: Немецкий, Французский, Английский
Субтитры: Русские, английские, немецкие, французские (полные)

Видео: AVC/H.264, 1280x536, ~2200 Kbps
Аудио 1: AAC, 2 ch, 280 kbps - Немецкий
Аудио 2: AAC, 2 ch, 265 kbps - Французский
Аудио 3: AAC, 2 ch, 160 kbps - Английский
Аудио 4: AAC, 2 ch, 273 kbps - Русский
Код: Выделить всё
General
Unique ID                      : 242227315861973007204377178959361864246 (0xB63B48BA8FE68C8540E260165093F236)
Complete name                  : Red.Sparrow.2018.German.MULTI.BDRip.720.AAC.MIXTV.mkv
Format                         : Matroska
Format version                 : Version 4 / Version 2
File size                      : 3.19 GiB
Duration                       : 2 h 20 min
Overall bit rate               : 3 260 kb/s
Movie name                     : Red.Sparrow.2018.German.MULTI.BDRip.720p from MIXTV
Encoded date                   : UTC 2018-05-16 15:11:53
Writing application            : mkvmerge v23.0.0 ('The Bride Said No') 64-bit
Writing library                : libebml v1.3.6 + libmatroska v1.4.9

Video
ID                             : 1
Format                         : AVC
Format/Info                    : Advanced Video Codec
Format profile                 : [url=http://nnmclub.to/mailto:High@L4.1]High@L4.1[/url]
Format settings                : CABAC / 9 Ref Frames
Format settings, CABAC         : Yes
Format settings, ReFrames      : 9 frames
Codec ID                       : V_MPEG4/ISO/AVC
Duration                       : 2 h 20 min
Bit rate                       : 2 200 kb/s
Width                          : 1 280 pixels
Height                         : 536 pixels
Display aspect ratio           : 2.40:1
Frame rate mode                : Constant
Frame rate                     : 23.976 (24000/1001) FPS
Color space                    : YUV
Chroma subsampling             : 4:2:0
Bit depth                      : 8 bits
Scan type                      : Progressive
Bits/(Pixel*Frame)             : 0.134
Stream size                    : 2.15 GiB (67%)
Title                          : Red.Sparrow.2018
Writing library                : x264 core 155 r2893 b00bcaf
Encoding settings              : cabac=1 / ref=9 / deblock=1:-1:-1 / analyse=0x3:0x133 / me=umh / subme=9 / psy=1 / psy_rd=1.00:0.15 / mixed_ref=1 / me_range=24 / chroma_me=1 / trellis=2 / 8x8dct=1 / cqm=0 / deadzone=21,11 / fast_pskip=1 / chroma_qp_offset=-3 / threads=6 / lookahead_threads=1 / sliced_threads=0 / nr=0 / decimate=1 / interlaced=0 / bluray_compat=0 / constrained_intra=0 / bframes=6 / b_pyramid=2 / b_adapt=2 / b_bias=0 / direct=3 / weightb=1 / open_gop=0 / weightp=2 / keyint=240 / keyint_min=24 / scenecut=40 / intra_refresh=0 / rc_lookahead=60 / rc=2pass / mbtree=1 / bitrate=2200 / ratetol=1.0 / qcomp=0.60 / qpmin=0 / qpmax=69 / qpstep=4 / cplxblur=20.0 / qblur=0.5 / vbv_maxrate=62500 / vbv_bufsize=78125 / nal_hrd=none / filler=0 / ip_ratio=1.40 / aq=1:1.00
Language                       : English
Default                        : Yes
Forced                         : Yes
Color range                    : Limited
Color primaries                : BT.709
Transfer characteristics       : BT.709
Matrix coefficients            : BT.709

Audio #1
ID                             : 2
Format                         : AAC
Format/Info                    : Advanced Audio Codec
Format profile                 : LC
Codec ID                       : A_AAC-2
Duration                       : 2 h 20 min
Bit rate                       : 280 kb/s
Channel(s)                     : 2 channels
Channel positions              : Front: L R
Sampling rate                  : 48.0 kHz
Frame rate                     : 46.875 FPS (1024 SPF)
Compression mode               : Lossy
Stream size                    : 281 MiB (9%)
Title                          : Dub
Language                       : German
Default                        : Yes
Forced                         : Yes

Audio #2
ID                             : 3
Format                         : AAC
Format/Info                    : Advanced Audio Codec
Format profile                 : LC
Codec ID                       : A_AAC-2
Duration                       : 2 h 20 min
Bit rate                       : 265 kb/s
Channel(s)                     : 2 channels
Channel positions              : Front: L R
Sampling rate                  : 48.0 kHz
Frame rate                     : 46.875 FPS (1024 SPF)
Compression mode               : Lossy
Stream size                    : 270 MiB (8%)
Title                          : Dub
Language                       : French
Default                        : No
Forced                         : No

Audio #3
ID                             : 4
Format                         : AAC
Format/Info                    : Advanced Audio Codec
Format profile                 : LC
Codec ID                       : A_AAC-2
Duration                       : 2 h 20 min
Bit rate                       : 273 kb/s
Channel(s)                     : 2 channels
Channel positions              : Front: L R
Sampling rate                  : 48.0 kHz
Frame rate                     : 46.875 FPS (1024 SPF)
Compression mode               : Lossy
Stream size                    : 273 MiB (8%)
Title                          : Dub [License]
Language                       : Russian
Default                        : No
Forced                         : No

Audio #4
ID                             : 5
Format                         : AAC
Format/Info                    : Advanced Audio Codec
Format profile                 : LC
Codec ID                       : A_AAC-2
Duration                       : 2 h 20 min
Bit rate                       : 160 kb/s
Channel(s)                     : 2 channels
Channel positions              : Front: L R
Sampling rate                  : 48.0 kHz
Frame rate                     : 46.875 FPS (1024 SPF)
Compression mode               : Lossy
Stream size                    : 160 MiB (5%)
Title                          : Original
Language                       : English
Default                        : No
Forced                         : No

Text #1
ID                             : 6
Format                         : UTF-8
Codec ID                       : S_TEXT/UTF8
Codec ID/Info                  : UTF-8 Plain Text
Duration                       : 2 h 8 min
Bit rate                       : 0 b/s
Count of elements              : 4
Stream size                    : 159 Bytes (0%)
Title                          : forced
Language                       : German
Default                        : Yes
Forced                         : Yes

Text #2
ID                             : 7
Format                         : PGS
Codec ID                       : S_HDMV/PGS
Codec ID/Info                  : Picture based subtitle format used on BDs/HD-DVDs
Duration                       : 2 h 19 min
Bit rate                       : 68.7 kb/s
Count of elements              : 4842
Stream size                    : 68.7 MiB (2%)
Title                          : complete
Language                       : German
Default                        : No
Forced                         : No

Text #3
ID                             : 8
Format                         : UTF-8
Codec ID                       : S_TEXT/UTF8
Codec ID/Info                  : UTF-8 Plain Text
Duration                       : 2 h 18 min
Bit rate                       : 61 b/s
Count of elements              : 1459
Stream size                    : 62.8 KiB (0%)
Title                          : Full [License]
Language                       : Russian
Default                        : No
Forced                         : No

Text #4
ID                             : 9
Format                         : UTF-8
Codec ID                       : S_TEXT/UTF8
Codec ID/Info                  : UTF-8 Plain Text
Duration                       : 2 h 18 min
Bit rate                       : 44 b/s
Count of elements              : 1562
Stream size                    : 44.8 KiB (0%)
Title                          : Full
Language                       : French
Default                        : No
Forced                         : No

Text #5
ID                             : 10
Format                         : UTF-8
Codec ID                       : S_TEXT/UTF8
Codec ID/Info                  : UTF-8 Plain Text
Duration                       : 2 h 8 min
Bit rate                       : 0 b/s
Count of elements              : 7
Stream size                    : 221 Bytes (0%)
Title                          : Forced
Language                       : French
Default                        : No
Forced                         : No

Text #6
ID                             : 11
Format                         : UTF-8
Codec ID                       : S_TEXT/UTF8
Codec ID/Info                  : UTF-8 Plain Text
Duration                       : 2 h 11 min
Bit rate                       : 47 b/s
Count of elements              : 1599
Stream size                    : 46.1 KiB (0%)
Title                          : Full
Language                       : English
Default                        : No
Forced                         : No

Text #7
ID                             : 12
Format                         : UTF-8
Codec ID                       : S_TEXT/UTF8
Codec ID/Info                  : UTF-8 Plain Text
Duration                       : 2 h 12 min
Bit rate                       : 51 b/s
Count of elements              : 1777
Stream size                    : 50.4 KiB (0%)
Title                          : SDH
Language                       : English
Default                        : No
Forced                         : No

Text #8
ID                             : 13
Format                         : UTF-8
Codec ID                       : S_TEXT/UTF8
Codec ID/Info                  : UTF-8 Plain Text
Duration                       : 2 h 12 min
Bit rate                       : 63 b/s
Count of elements              : 1777
Stream size                    : 61.9 KiB (0%)
Title                          : SDH Colored
Language                       : English
Default                        : No
Forced                         : No

Text #9
ID                             : 14
Format                         : VobSub
Codec ID                       : S_VOBSUB
Codec ID/Info                  : Picture based subtitle format used on DVDs
Duration                       : 2 h 12 min
Bit rate                       : 5 172 b/s
Count of elements              : 1777
Stream size                    : 4.90 MiB (0%)
Title                          : VobSub-MIXTV
Language                       : English
Default                        : No
Forced                         : No

Menu
00:00:00.000                   : en:00:00:00.000
00:08:00.105                   : en:00:08:00.105
00:11:31.983                   : en:00:11:31.983
00:16:57.183                   : en:00:16:57.183
00:21:09.643                   : en:00:21:09.643
00:27:21.265                   : en:00:27:21.265
00:33:03.356                   : en:00:33:03.356
00:38:09.245                   : en:00:38:09.245
00:42:29.130                   : en:00:42:29.130
00:46:41.799                   : en:00:46:41.799
00:54:14.334                   : en:00:54:14.334
00:58:45.480                   : en:00:58:45.480
01:04:55.266                   : en:01:04:55.266
01:10:26.139                   : en:01:10:26.139
01:16:28.250                   : en:01:16:28.250
01:26:44.699                   : en:01:26:44.699
01:32:06.938                   : en:01:32:06.938
01:36:22.443                   : en:01:36:22.443
01:41:53.149                   : en:01:41:53.149
01:49:48.415                   : en:01:49:48.415
01:53:45.610                   : en:01:53:45.610
01:58:52.083                   : en:01:58:52.083
02:07:20.132                   : en:02:07:20.132
02:13:40.095                   : en:02:13:40.095

Скриншоты:




Время раздачи: Пн-Пт с 09:00 до 22:00, Сб-Вс с 09:00 до 21:00 (до появления первых 3-5 скачавших)
 
Не забывайте говорить Спасибо. Не уходите с раздачи!   
Торрент: Зарегистрирован [17 май 2018, 10:34] Для скачивания .torrent
необходима регистрация
Или скачать с помощью
MediaGet
Статус:
Проверен
 
.torrent скачан: 0 раз
Хэш: 65c9e2ecb29eccf8331e72a54f4d5532179cdafa
Размер: 3.19 ГБ (3 428 040 278 байт)
Стать Автором раздачи
 
 
Раздал: 100 ГБ
Скачал: 0 байт
Ратио: Seed.
Сообщения: 100786
Зарегистрирован: 09 апр 2015, 22:31


  • Похожие торренты
    Ответы
    Просмотры
    Последнее сообщение

Вернуться в Зарубежные фильмы с переводом на других языках

Ресурс не предоставляет электронные версии произведений, а занимается лишь коллекционированием и каталогизацией ссылок, присылаемых и публикуемых на форуме нашими читателями. Если вы являетесь правообладателем какого-либо представленного материала и не желаете чтобы ссылка на него находилась в нашем каталоге, свяжитесь с нами и мы незамедлительно удалим её. Файлы для обмена на трекере предоставлены пользователями сайта, и администрация не несёт ответственности за их содержание. Просьба не заливать файлы, защищенные авторскими правами, а также файлы нелегального содержания!