Движение вверх (2017) WEB-DL [H.264/1080p-LQ]

 
 Статистика раздачи 
Размер: 4.8 ГБ   |  Зарегистрирован: 17 май 2018, 02:28   |   .torrent скачан: 0 раз
Сидеров: 1  [ 0 байт/сек ]     Личеров: 0  [ 0 байт/сек ]  
  

Движение вверх (2017) WEB-DL [H.264/1080p-LQ]

Сообщение explosiveone » 17 май 2018, 02:28

Движение вверх (2017) WEB-DL [H.264/1080p-LQ]

Производство: Россия, Студия Тритэ
Жанр: Спорт, Драма

Режиссер: Антон Мегердичев
Продюсер: Леонид Верещагин, Антон Златопольский, Никита Михалков,
Актеры: Владимир Машков, Андрей Смоляков, Иван Колесников, Кирилл Зайцев, Джон Сэвэдж, Марат Башаров, Александра Ревенко, Виктория Толстоганова, Сергей Гармаш, Джеймс Тратас

Описание:
Есть победы, которые меняют ход истории. Победы духа, победы страны, победы всего мира. Таким триумфом стали легендарные «три секунды» — выигрыш сборной СССР по баскетболу на роковой мюнхенской Олимпиаде 1972 г. Впервые за 36 лет была повержена «непобедимая» команда США. Никто даже помыслить не мог о том, что это возможно — обыграть великолепных непогрешимых американцев на Олимпийских играх! Никто, кроме советских баскетболистов (русских и грузин, украинцев и казахов, белорусов и литовцев). Когда проигрыш означал поражение страны, когда нужно было выходить и бороться в раскаленной обстановке из-за произошедшего теракта, великий тренер сборной СССР был готов на все, лишь бы помочь своим подопечным разбить американский миф о непотопляемой команде мечты. Ведь он знал, что создал самую сильную сборную на планете, и в начале заставил поверить в это своих игроков, а затем весь мир.

http://www.imdb.com/title/tt5987402/?ref_=plg_rt_1
Возраст: 6+ (зрителям, достигшим 6 лет)
Дата мировой премьеры: 5 января 2018
Дата российской премьеры: 28 декабря 2017, «Централ Партнершип»

Продолжительность: 02:08:30
Качество видео: WEB-DL
Перевод: Не требуется (русский) iTunes
Субтитры: Русские (на иностранную речь-хардсаб)

Видео: AVC/H.264, 1920x808 (2.40:1), 4853 kbps
Аудио: 48 kHz, AC3 Dolby Digital, 3/2 (L,C,R,l,r) + LFE ch, ~384 kbps
Код: Выделить всё
Общее
Уникальный идентификатор                 : 191270055241408738811234365238680043622 (0x8FE545CEB5E7EC1792E2845F32454066)
Полное имя                               : D:\Движение.вверх.2017.WEB-DL.[1080p].NNMClub.mkv
Формат                                   : Matroska
Версия формата                           : Version 4 / Version 2
Размер файла                             : 4,80 Гбайт
Продолжительность                        : 2 ч. 8 м.
Общий поток                              : 5343 Кбит/сек
Дата кодирования                         : UTC 2018-05-16 18:48:24
Программа кодирования                    : mkvmerge v6.9.1 ('Blue Panther') 32bit built on Apr 18 2014 18:15:44
Библиотека кодирования                   : libebml v1.3.0 + libmatroska v1.4.1

Видео
Идентификатор                            : 1
Формат                                   : AVC
Формат/Информация                        : Advanced Video Codec
Профиль формата                          : High@L4
Параметр CABAC формата                   : Да
Параметр RefFrames формата               : 5 кадров
Идентификатор кодека                     : V_MPEG4/ISO/AVC
Продолжительность                        : 2 ч. 8 м.
Битрейт                                  : 4853 Кбит/сек
Ширина                                   : 1920 пикселей
Высота                                   : 808 пикселей
Соотношение сторон                       : 2,40:1
Режим частоты кадров                     : Постоянный
Частота кадров                           : 25,000 кадров/сек
Цветовое пространство                    : YUV
Субдискретизация насыщенности            : 4:2:0
Битовая глубина                          : 8 бит
Тип развёртки                            : Прогрессивная
Бит/(Пиксели*Кадры)                      : 0.125
Размер потока                            : 4,36 Гбайт (91%)
Язык                                     : English
Default                                  : Да
Forced                                   : Нет
Цветовой диапазон                        : Limited
Основные цвета                           : BT.709
Характеристики трансфера                 : BT.709
Коэффициенты матрицы                     : BT.709

Аудио
Идентификатор                            : 2
Формат                                   : AC-3
Формат/Информация                        : Audio Coding 3
Параметр Endianness формата              : Big
Идентификатор кодека                     : A_AC3
Продолжительность                        : 2 ч. 8 м.
Вид битрейта                             : Постоянный
Битрейт                                  : 384 Кбит/сек
Каналы                                   : 6 каналов
Расположение каналов                     : Front: L C R, Side: L R, LFE
Частота                                  : 48,0 КГц
Частота кадров                           : 31,250 кадров/сек (1536 SPF)
Битовая глубина                          : 16 бит
Метод сжатия                             : С потерями
Размер потока                            : 353 Мбайт (7%)
Язык                                     : Russian
ServiceKind/String                       : Complete Main
Default                                  : Да
Forced                                   : Нет

Меню
00:00:00.000                             : en:Глава 1
00:07:33.680                             : en:Глава 2
00:13:14.360                             : en:Глава 3
00:19:08.600                             : en:Глава 4
00:26:01.840                             : en:Глава 5
00:32:55.680                             : en:Глава 6
00:40:11.120                             : en:Глава 7
00:48:20.000                             : en:Глава 8
00:55:06.920                             : en:Глава 9
01:02:29.480                             : en:Глава 10
01:09:07.200                             : en:Глава 11
01:15:20.640                             : en:Глава 12
01:19:31.240                             : en:Глава 13
01:25:14.760                             : en:Глава 14
01:30:21.640                             : en:Глава 15
01:37:04.000                             : en:Глава 16
01:42:57.640                             : en:Глава 17
01:47:46.920                             : en:Глава 18
01:54:38.400                             : en:Глава 19

Скриншоты:




Время раздачи: 24/7 (до появления первых 3-5 скачавших)
 
Не забывайте говорить Спасибо. Не уходите с раздачи!   
Торрент: Зарегистрирован [17 май 2018, 02:28] Для скачивания .torrent
необходима регистрация
Или скачать с помощью
MediaGet
Статус:
Проверен
 
.torrent скачан: 0 раз
Хэш: 352e429730692e1b02a1493ea20b818ff3e9a3ef
Размер: 4.8 ГБ (5 149 749 340 байт)
Стать Автором раздачи
 
 
Раздал: 100 ГБ
Скачал: 0 байт
Ратио: Seed.
Сообщения: 100000
Зарегистрирован: 09 апр 2015, 22:31


  • Похожие торренты
    Ответы
    Просмотры
    Последнее сообщение

Вернуться в Отечественное кино

Ресурс не предоставляет электронные версии произведений, а занимается лишь коллекционированием и каталогизацией ссылок, присылаемых и публикуемых на форуме нашими читателями. Если вы являетесь правообладателем какого-либо представленного материала и не желаете чтобы ссылка на него находилась в нашем каталоге, свяжитесь с нами и мы незамедлительно удалим её. Файлы для обмена на трекере предоставлены пользователями сайта, и администрация не несёт ответственности за их содержание. Просьба не заливать файлы, защищенные авторскими правами, а также файлы нелегального содержания!