Падает вверх (2015) WEB-DL [H.264/1080p-LQ]

 
 Статистика раздачи 
Размер: 1.06 ГБ   |  Зарегистрирован: 17 май 2018, 02:13   |   .torrent скачан: 0 раз
Сидеров: 1  [ 0 байт/сек ]     Личеров: 0  [ 0 байт/сек ]  
  

Падает вверх (2015) WEB-DL [H.264/1080p-LQ]

Сообщение explosiveone » 17 май 2018, 02:13

Падает вверх (2015) WEB-DL [H.264/1080p-LQ]

Производство: Россия
Жанр: Короткометражный, семейный, сказка, детский

Режиссер: Андрей Ким
Актеры: Георгий Плинер, Анастасия Задорина, Дарья Чупракова, Андрей Шимичев, Павел Шерстобитов, Олеся Осминина, Данила Бородин, Вячеслав Хархота, Игорь Кравченко, Любовь Бурлакова

Описание:
Веселая притча о свободе дружить и общаться, о самостоятельности и независимости. О том, что интуитивное, «детское» понятие Добра — и есть та исконная правда, к осознанию которой взрослые, порой, так непросто приходят.


Возраст: 0+ (для любой зрительской аудитории)

Релиз от: Aлexandr
Продолжительность: 00:42:27
Качество видео: WEB-DL
Субтитры: Отсутствуют

Видео: AVC/H.264, 1920x1080 (16:9), ~3375 Kbps
Аудио: AC3, 2 ch, 192 Kbps
Код: Выделить всё
Общее
Уникальный идентификатор                 : 15108175264667764455982009953070658595 (0xB5DBA8D0C6261E61DABABE7D5E8B423)
Полное имя                               : D:\Падает вверх (2015).by.Алехаndr.mkv
Формат                                   : Matroska
Версия формата                           : Version 4 / Version 2
Размер файла                             : 1,06 Гбайт
Продолжительность                        : 42 м. 27 с.
Общий поток                              : 3570 Кбит/сек
Дата кодирования                         : UTC 2018-05-16 15:48:29
Программа кодирования                    : mkvmerge v23.0.0 ('The Bride Said No') 64-bit
Библиотека кодирования                   : libebml v1.3.6 + libmatroska v1.4.9 / Lavf57.71.100

Видео
Идентификатор                            : 1
Формат                                   : AVC
Формат/Информация                        : Advanced Video Codec
Профиль формата                          : High@L4
Настройки формата                        : CABAC / 2 Ref Frames
Параметр CABAC формата                   : Да
Параметр RefFrames формата               : 2 кадра
Идентификатор кодека                     : V_MPEG4/ISO/AVC
Продолжительность                        : 42 м. 27 с.
Битрейт                                  : 3377 Кбит/сек
Ширина                                   : 1920 пикселей
Высота                                   : 1080 пикселей
Соотношение сторон                       : 16:9
Режим частоты кадров                     : Постоянный
Частота кадров                           : 25,000 кадров/сек
Цветовое пространство                    : YUV
Субдискретизация насыщенности            : 4:2:0
Битовая глубина                          : 8 бит
Тип развёртки                            : Прогрессивная
Бит/(Пиксели*Кадры)                      : 0.065
Размер потока                            : 1,00 Гбайт (95%)
Default                                  : Да
Forced                                   : Нет

Аудио
Идентификатор                            : 2
Формат                                   : AC-3
Формат/Информация                        : Audio Coding 3
Идентификатор кодека                     : A_AC3
Продолжительность                        : 42 м. 27 с.
Вид битрейта                             : Постоянный
Битрейт                                  : 192 Кбит/сек
Каналы                                   : 2 канала
Расположение каналов                     : Front: L R
Частота                                  : 48,0 КГц
Частота кадров                           : 31,250 кадров/сек (1536 SPF)
Битовая глубина                          : 16 бит
Метод сжатия                             : С потерями
Размер потока                            : 58,3 Мбайт (5%)
ServiceKind/String                       : Complete Main
Default                                  : Да
Forced                                   : Нет

Скриншоты:




Время раздачи: 24/7 (круглосуточно) (до появления первых 3-5 скачавших)
 
Не забывайте говорить Спасибо. Не уходите с раздачи!   
Торрент: Зарегистрирован [17 май 2018, 02:13] Для скачивания .torrent
необходима регистрация
Или скачать с помощью
MediaGet
Статус:
Проверен
 
.torrent скачан: 0 раз
Хэш: decb466c8f305c23d4b6d95d87e0c3afec3df26c
Размер: 1.06 ГБ (1 137 077 668 байт)
Стать Автором раздачи
 
 
Раздал: 100 ГБ
Скачал: 0 байт
Ратио: Seed.
Сообщения: 100000
Зарегистрирован: 09 апр 2015, 22:31


  • Похожие торренты
    Ответы
    Просмотры
    Последнее сообщение

Вернуться в Детские отечественные фильмы

Ресурс не предоставляет электронные версии произведений, а занимается лишь коллекционированием и каталогизацией ссылок, присылаемых и публикуемых на форуме нашими читателями. Если вы являетесь правообладателем какого-либо представленного материала и не желаете чтобы ссылка на него находилась в нашем каталоге, свяжитесь с нами и мы незамедлительно удалим её. Файлы для обмена на трекере предоставлены пользователями сайта, и администрация не несёт ответственности за их содержание. Просьба не заливать файлы, защищенные авторскими правами, а также файлы нелегального содержания!