Камера / The Chamber (1996) WEB-DL [H.264/720p-LQ]

 
 Статистика раздачи 
Размер: 3.64 ГБ   |  Зарегистрирован: 17 май 2018, 02:11   |   .torrent скачан: 0 раз
Сидеров: 1  [ 0 байт/сек ]     Личеров: 0  [ 0 байт/сек ]  
  

Камера / The Chamber (1996) WEB-DL [H.264/720p-LQ]

Сообщение explosiveone » 17 май 2018, 02:11

Камера / The Chamber (1996) WEB-DL
«Time is running out»

Производство: США | Universal Pictures, Davis Entertainment, Imagine Entertainment
Жанр: Драма, криминал

Режиссер: Джеймс Фоули
Актеры: Крис О`Доннелл, Джин Хэкмен, Фэй Данауэй, Роберт Проски, Рэймонд Дж. Бэрри, Бо Джексон, Лила Рошон, Дэвид Маршалл Грант, Николас Прайор, Харви Преснелл

Описание:
В апреле 1967 года в одном из южных штатов расисты взорвали контору еврея. Погибли двое детей. Затем действие переносится в Чикаго 1996 года. Молодой адвокат должен защищать человека, виновного в этом преступлении. Его ждет смертный приговор…

http://www.imdb.com/title/tt0115862/?ref_=plg_rt_1
Рейтинг MPAA: R (лицам до 17 лет обязательно присутствие взрослого)
Дата мировой премьеры: 2 октября 1996
Дата российской премьеры: 5 сентября 2001
Дата выхода DVD/Blu-ray релиза: 12 сентября 2006, «Юниверсал Пикчерс Рус»

Продолжительность: 01:52:31
Качество видео: WEB-DL
Перевод: Двуголосый закадровый, профессиональный
Субтитры: Английские

Видео: AVC/H.264, 1280x538 (2.40:1), ~3957 kbps, 23.976 fps
Аудио 1: AC3, 2 ch, 48.0 kHz, 192 kbps CBR - Русский
Аудио 2: AC3, 6 ch, 48.0 kHz, 384 kbps CBR - Английский
Код: Выделить всё
General
Unique ID                   : 195261862850049460542887371564638923761 (0x92E6111E20E530E5B6CBBC809C4DEBF1)
Complete name               : D:\The_Chamber_1996_WEB-DL_720p.mkv
Format                      : Matroska
Format version              : Version 2
File size                   : 3.64 GiB
Duration                    : 1 h 52 min
Overall bit rate            : 4 625 kb/s
Encoded date                : UTC 2013-08-12 18:11:41
Writing application         : mkvmerge v4.9.1 ('Ich will') сборка от Jul 11 2011 23:53:15
Writing library             : libebml v1.2.1 + libmatroska v1.1.1

Video
ID                          : 1
Format                      : AVC
Format/Info                 : Advanced Video Codec
Format profile              : [url=http://nnmclub.to/mailto:Main@L3.1]Main@L3.1[/url]
Format settings, CABAC      : No
Format settings, ReFrames   : 2 frames
Codec ID                    : V_MPEG4/ISO/AVC
Duration                    : 1 h 52 min
Bit rate                    : 3 957 kb/s
Width                       : 1 280 pixels
Height                      : 538 pixels
Display aspect ratio        : 2.40:1
Frame rate mode             : Constant
Frame rate                  : 23.976 FPS
Color space                 : YUV
Chroma subsampling          : 4:2:0
Bit depth                   : 8 bits
Scan type                   : Progressive
Bits/(Pixel*Frame)          : 0.240
Stream size                 : 3.11 GiB (86%)
Language                    : English
Default                     : Yes
Forced                      : No
Color range                 : Limited
Color primaries             : BT.709
Transfer characteristics    : BT.709
Matrix coefficients         : BT.709

Audio #1
ID                          : 2
Format                      : AC-3
Format/Info                 : Audio Coding 3
Format settings, Endianness : Big
Codec ID                    : A_AC3
Duration                    : 1 h 52 min
Bit rate mode               : Constant
Bit rate                    : 192 kb/s
Channel(s)                  : 2 channels
Channel positions           : Front: L R
Sampling rate               : 48.0 kHz
Frame rate                  : 31.250 FPS (1536 spf)
Bit depth                   : 16 bits
Compression mode            : Lossy
Stream size                 : 155 MiB (4%)
Language                    : Russian
Service kind                : Complete Main
Default                     : Yes
Forced                      : No

Audio #2
ID                          : 3
Format                      : AC-3
Format/Info                 : Audio Coding 3
Format settings, Endianness : Big
Codec ID                    : A_AC3
Duration                    : 1 h 52 min
Bit rate mode               : Constant
Bit rate                    : 384 kb/s
Channel(s)                  : 6 channels
Channel positions           : Front: L C R, Side: L R, LFE
Sampling rate               : 48.0 kHz
Frame rate                  : 31.250 FPS (1536 spf)
Bit depth                   : 16 bits
Compression mode            : Lossy
Stream size                 : 309 MiB (8%)
Language                    : English
Service kind                : Complete Main
Default                     : No
Forced                      : No

Text
ID                          : 4
Format                      : UTF-8
Codec ID                    : S_TEXT/UTF8
Codec ID/Info               : UTF-8 Plain Text
Language                    : English
Default                     : No
Forced                      : No

Menu
00:00:00.000                : en:The Cayhall Case (Main Titles)
00:08:11.000                : en:Hitler's Daughter
00:13:01.000                : en:The New Lawyer
00:26:22.000                : en:The Governor's Options
00:28:25.000                : en:Welcome to Dixie
00:33:15.000                : en:Land of The Secrets
00:37:35.000                : en:I'll Tell You About The Past . . .
00:50:16.000                : en:A New Motion
00:58:08.000                : en:The Sovereignty Commission's Report
01:03:27.000                : en:A Family Picture
01:13:19.000                : en:The Path to "R.W."
01:19:26.000                : en:Forgiveness
01:22:33.000                : en:The Last Appeal
01:32:58.000                : en:The Final Judgment
01:41:13.000                : en:The Chamber
01:46:45.000                : en:Maybe The Ghosts Are Gone (End Titles)

Скриншоты:



Время раздачи: 24/7 (до появления первых 3-5 скачавших)
 
Не забывайте говорить Спасибо. Не уходите с раздачи!   
Торрент: Зарегистрирован [17 май 2018, 02:11] Скачать торрент
Скачать торрент
[ Размер 18.95 КБ / Просмотров 5 ]
Статус:
Проверен
 
.torrent скачан: 0 раз
Хэш: 92d5c8c797042a0d205cffe3015a1acec81ccddf
Размер: 3.64 ГБ (3 903 056 465 байт)
Стать Автором раздачи
 
 
Раздал: 100 ГБ
Скачал: 0 байт
Ратио: Seed.
Сообщения: 102802
Зарегистрирован: 09 апр 2015, 22:31


  • Похожие торренты
    Ответы
    Просмотры
    Последнее сообщение

Вернуться в Зарубежные фильмы 1991-2000

Ресурс не предоставляет электронные версии произведений, а занимается лишь коллекционированием и каталогизацией ссылок, присылаемых и публикуемых на форуме нашими читателями. Если вы являетесь правообладателем какого-либо представленного материала и не желаете чтобы ссылка на него находилась в нашем каталоге, свяжитесь с нами и мы незамедлительно удалим её. Файлы для обмена на трекере предоставлены пользователями сайта, и администрация не несёт ответственности за их содержание. Просьба не заливать файлы, защищенные авторскими правами, а также файлы нелегального содержания!