Кулинарные поединки Сомы: Третье блюдо (Часть вторая) / Shokugeki no Souma: San no Sara - Too Tsuki Ressha Hen / Food Wars! The Third Plate: Totsuki Train Arc [TV] [1-6 из ??] [Без хардсаба] [RUS(int), JAP+SUB] [2018, Комедия, Этти, HDTVRip]

 
 Статистика раздачи 
Размер: 2.82 ГБ   |  Зарегистрирован: 16 май 2018, 22:25   |   .torrent скачан: 0 раз
Сидеров: 1  [ 0 байт/сек ]     Личеров: 0  [ 0 байт/сек ]  
  

Кулинарные поединки Сомы: Третье блюдо (Часть вторая) / Shokugeki no Souma: San no Sara - Too Tsuki Ressha Hen / Food Wars! The Third Plate: Totsuki Train Arc [TV] [1-6 из ??] [Без хардсаба] [RUS(int), JAP+SUB] [2018, Комедия, Этти, HDTVRip]

Сообщение Nakazhu » 16 май 2018, 22:25


Кулинарные поединки Сомы: Третье блюдо (Часть вторая)
Shokugeki no Souma: San no Sara - Too Tsuki Ressha Hen / Food Wars! The Third Plate: Totsuki Train Arc

Страна: Япония
Год выпуска: 2018
Жанр: Комедия, Романтика, Драма, Сёнэн, Этти
Тип: TV
Продолжительность: ?? эп. ~24 мин
Режиссер: Ёнэтани Ёситомо
Студия:
Озвучка: Многоголосая / AniLibria
—HectoR(муж)
—Anzen(муж)
—Ados(муж)
—Aemi(жен)
—Amikiri(жен)
Перевод: Sovet Romantica
Описание: Юкихира Сома возвращается на наши экраны! Ещё в школе этот парень уже распланировал свою жизнь. Он буквально спал и видел, как маленький ресторанчик, в котором работают он и его отец, переходит к нему по наследству. Но не тут то было, его папа уезжает в путешествие, а самого Юкихиру отправляет в знаменитую кулинарную академию Тоцуки. Здесь самоуверенному Соме приходится буквально сражаться с другими юными поварами, чтобы забраться на самую вершину академии и попасть в число её элиты.
Даже проиграв Акире Хаяме в осенних выборах, неунывающий Сома решает не сдаваться. Он намерен найти свой собственный стиль в приготовлении блюд. А поможет ему в этом программа стажировки для первокурсников, где Юкихире повезло работать плечом к плечу с легендарным Коджиро Шиномией. Поучаствовав в открытии японского филиала его французского ресторана, Сома прошёл через огонь, воду и медные трубы. Возвратившись в Тоцуки, Юкихира как никогда готов принять вызов от любого повара. Начало новым кулинарным боям положено!
Информационные ссылки:: AniDB | MyAnimeList | World Art
Качество: HDTVRip
Тип релиза: Без хардсаба
Формат видео: MKV
Автор рипа: Ohys-Raws
Видео: AVC, 8 bits, 1280x720, ~2200 kbps, 23,976 fps
Аудио: RUS, AAC, 48000 Hz, 221 kbps, 2 ch; Язык Русский (в составе контейнера) ;
Аудио 2: JAP, AAC, 48000 Hz, 192 kbps, 2 ch;
Субтитры: RUS, ASS (надписи + полные, в составе контейнера) Sovet Romantica (Gromochan, Licht)[/spoiler]
Код: Выделить всё
Формат                                   : Matroska
Версия формата                           : Version 4 / Version 2
Размер файла                             : 466 Мбайт
Продолжительность                        : 24 м. 30 с.
Общий поток                              : 2657 Кбит/сек
Дата кодирования                         : UTC 2018-04-09 17:23:54
Программа кодирования                    : mkvmerge v22.0.0 ('At The End Of The World') 64-bit
Библиотека кодирования                   : libebml v1.3.5 + libmatroska v1.4.8
Attachments                              : 2265.ttf / 3125511.ttf / 8128831.ttf / Adlery-Pro-Blockletter-trial.ttf / BrushType-SemiBold Regular.Ttf / BTYP.TTF / ofont.ru_AGPalatial (1).ttf / ofont.ru_AGPalatial (2).ttf / ofont.ru_AGPalatial.ttf
Видео
Идентификатор                            : 1
Формат                                   : AVC
Формат/Информация                        : Advanced Video Codec
Профиль формата                          : Main@L4.1
Настройки формата                        : CABAC / 4 Ref Frames
Параметр CABAC формата                   : Да
Параметр RefFrames формата               : 4 кадра
Параметр GOP формата                     : M=1, N=2
Идентификатор кодека                     : V_MPEG4/ISO/AVC
Продолжительность                        : 24 м. 30 с.
Битрейт                                  : 2232 Кбит/сек
Ширина                                   : 1280 пикселей
Высота                                   : 720 пикселей
Соотношение сторон                       : 16:9
Режим частоты кадров                     : Переменный
Частота кадров                           : 23,976 (23976/1000) кадра/сек
Частота кадров в оригинале               : 23,976 (24000/1001) кадра/сек
Цветовое пространство                    : YUV
Субдискретизация насыщенности            : 4:2:0
Битовая глубина                          : 8 бит
Тип развёртки                            : Прогрессивная
Бит/(Пиксели*Кадры)                      : 0.101
Размер потока                            : 391 Мбайт (84%)
Библиотека кодирования                   : x264 core 155 r2867+82 a249126 t_mod_Custom_2 [8-bit@all X86_64]
Настройки программы                      : cabac=1 / ref=3 / deblock=1:0:0 / analyse=0x1:0x111 / me=hex / subme=7 / psy=1 / fade_compensate=0.00 / psy_rd=1.00:0.00 / mixed_ref=1 / me_range=16 / chroma_me=1 / trellis=1 / 8x8dct=0 / cqm=0 / deadzone=21,11 / fast_pskip=1 / chroma_qp_offset=-2 / threads=18 / lookahead_threads=3 / sliced_threads=0 / nr=0 / decimate=1 / interlaced=0 / bluray_compat=0 / constrained_intra=0 / fgo=0 / bframes=3 / b_pyramid=2 / b_adapt=1 / b_bias=0 / direct=1 / weightb=1 / open_gop=0 / weightp=2 / keyint=240 / keyint_min=1 / scenecut=40 / intra_refresh=0 / rc_lookahead=40 / rc=crf / mbtree=1 / crf=20.0000 / qcomp=0.60 / qpmin=0:0:0 / qpmax=69:69:69 / qpstep=4 / ip_ratio=1.40 / aq=1:1.50 / aq-sensitivity=10.00 / aq-factor=1.00:1.00:1.00 / aq2=0 / aq3=0
Default                                  : Да
Forced                                   : Нет
Цветовой диапазон                        : Limited
Основные цвета                           : BT.709
Характеристики трансфера                 : BT.709
Коэффициенты матрицы                     : BT.709
Аудио #1
Идентификатор                            : 2
Формат                                   : AAC
Формат/Информация                        : Advanced Audio Codec
Профиль формата                          : LC
Идентификатор кодека                     : A_AAC-2
Продолжительность                        : 24 м. 30 с.
Битрейт                                  : 221 Кбит/сек
Каналы                                   : 2 канала
Расположение каналов                     : Front: L R
Частота                                  : 48,0 КГц
Частота кадров                           : 46,875 кадров/сек (1024 SPF)
Метод сжатия                             : С потерями
Размер потока                            : 38,8 Мбайт (8%)
Заголовок                                : AniLibbria.TV (MVO)
Язык                                     : Russian
Default                                  : Да
Forced                                   : Да
Аудио #2
Идентификатор                            : 3
Формат                                   : AAC
Формат/Информация                        : Advanced Audio Codec
Профиль формата                          : LC
Идентификатор кодека                     : A_AAC-2
Продолжительность                        : 24 м. 30 с.
Битрейт                                  : 192 Кбит/сек
Каналы                                   : 2 канала
Расположение каналов                     : Front: L R
Частота                                  : 48,0 КГц
Частота кадров                           : 46,875 кадров/сек (1024 SPF)
Метод сжатия                             : С потерями
Размер потока                            : 34,0 Мбайт (7%)
Заголовок                                : Оригинал
Язык                                     : Japanese
Default                                  : Нет
Forced                                   : Нет
Текст #1
Идентификатор                            : 4
Формат                                   : ASS
Идентификатор кодека                     : S_TEXT/ASS
Идентификатор кодека/Информация          : Advanced Sub Station Alpha
Продолжительность                        : 24 м. 20 с.
Битрейт                                  : 11 бит/сек
ElementCount                             : 19
Метод сжатия                             : Без потерь
Размер потока                            : 2,13 Кбайт (0%)
Заголовок                                : Надписи
Язык                                     : Russian
Default                                  : Да
Forced                                   : Да
Текст #2
Идентификатор                            : 5
Формат                                   : ASS
Идентификатор кодека                     : S_TEXT/ASS
Идентификатор кодека/Информация          : Advanced Sub Station Alpha
Продолжительность                        : 22 м. 50 с.
Битрейт                                  : 212 бит/сек
ElementCount                             : 426
Метод сжатия                             : Без потерь
Размер потока                            : 35,5 Кбайт (0%)
Заголовок                                : Sovet Romantica
Язык                                     : Russian
Default                                  : Нет
Forced                                   : Нет

01. Advancement Exam (Переходные экзамены)
02. Onward on the Totsuki Train (Вперед на поезде Тоцуки)

03. Jean d`Arc Rises (Жанна д'Арк выходит на бой)
04. Revenge Match (Матч-реванш)
05. The Umami Tightrope (Тонкий умами)
06. For Whom (Для кого?)
07. Declaration of War
08.
09.
10.
11.
12.


Добавлена 6 серия, перекачайте торрент-файл
 
Не забывайте говорить Спасибо. Не уходите с раздачи!   
Торрент: Зарегистрирован [16 май 2018, 22:25] Скачать торрент
Скачать торрент
[ Размер 15.1 КБ / Просмотров 2 ]
Статус:
Проверен
 
.torrent скачан: 0 раз
Хэш: 7d0c8417e50fe7922bbf4e50e12e385329be5a77
Размер: 2.82 ГБ (3 023 146 952 байт)
Стать Автором раздачи
 
 
Раздал: 0 байт
Скачал: 0 байт
Ратио: Inf.
Сообщения: 487468
Зарегистрирован: 17 апр 2014, 13:57


  • Похожие торренты
    Ответы
    Просмотры
    Последнее сообщение

Вернуться в Аниме (HD и Blu-ray)

Ресурс не предоставляет электронные версии произведений, а занимается лишь коллекционированием и каталогизацией ссылок, присылаемых и публикуемых на форуме нашими читателями. Если вы являетесь правообладателем какого-либо представленного материала и не желаете чтобы ссылка на него находилась в нашем каталоге, свяжитесь с нами и мы незамедлительно удалим её. Файлы для обмена на трекере предоставлены пользователями сайта, и администрация не несёт ответственности за их содержание. Просьба не заливать файлы, защищенные авторскими правами, а также файлы нелегального содержания!
cron