Прокол / Blow out (Брайан Де Пальма / Brian De Palma) [1981, США, драма, триллер, BDRemux 1080p] [GBR Transfer] MVO (НТВ) + 3xDVO (ВГТРК, Екатеринбург Арт, Интервидео) + 3xAVO (Гаврилов, Горчаков, Михалёв) + Sub (Rus, Eng) + Original (Eng)

 
 Статистика раздачи 
Размер: 24.71 ГБ   |  Зарегистрирован: 16 май 2018, 21:38   |   .torrent скачан: 0 раз
Сидеров: 1  [ 0 байт/сек ]     Личеров: 0  [ 0 байт/сек ]  
  

Прокол / Blow out (Брайан Де Пальма / Brian De Palma) [1981, США, драма, триллер, BDRemux 1080p] [GBR Transfer] MVO (НТВ) + 3xDVO (ВГТРК, Екатеринбург Арт, Интервидео) + 3xAVO (Гаврилов, Горчаков, Михалёв) + Sub (Rus, Eng) + Original (Eng)

Сообщение Nakazhu » 16 май 2018, 21:38

Прокол / Blow out / GBR Transfer
Страна: США
Студия: Cinema 77, Filmways Pictures, Geria Production
Жанр: драма, триллер
Год выпуска: 1981
Продолжительность: 01:48:03
Перевод: Профессиональный (многоголосый закадровый) - НТВ
Перевод 2: Профессиональный (двухголосый закадровый) - ВГТРК
Перевод 3: Профессиональный (двухголосый закадровый) - Екатеринбург Арт
Перевод 4: Профессиональный (двухголосый закадровый) - Интервидео
Перевод 5: Авторский (одноголосый закадровый) - Андрей Гаврилов
Перевод 6: Авторский (одноголосый закадровый) - Василий Горчаков
Перевод 7: Авторский (одноголосый закадровый) - Алексей Михалёв
Субтитры: русские, английские
Оригинальная аудиодорожка: английский
Режиссер: Брайан Де Пальма / Brian De Palma
В ролях: Джон Траволта, Нэнси Аллен, Джон Литгоу, Деннис Франц, Питер Бойден, Курт Мэй, Джон Акино, Джон МакМартин, Дебора Эвертон, Дж. Патрик МакНамара, Мисси Кливлэнд, Роджер Уилсон, Лори-Нэн Энглер, Синди Мэнион, Мисси О’Ши, Марси Бигелмен, Энн Келли, Дин Беннетт, Джон Копполино-старший, Арчи Лэнг, Дэйв Робертс, Клер Картер, Морис Коуплэнд, Джон Хоффмайстер, Дэвид Де Фелис, Барбара Сигел, Том МакКарти, Реджинальд М. Уоллес, Роберт Л. Пенроуз, Ларри Вуди, Дик Макгарвин, Майкл Боргез, Россана Фичера, Джеймс Джетер, Ладди Трамонтана, Сид Доэрти, Милт Филдс, Бад Сис, Морин Салливан, Брайан Корригэн, Elaine Filoon, Робин Шервуд, Тим Чоут, Б. Дж. Сайрус, Дэйв Де Анджелис, Томас Финн, Тони Девон, Генри Коэн, Берни Рейчел, Уильям Тармэн, Майкл Тирсон, Эрнест МакКлюр
Роли озвучивали (НТВ): Виктор Бохон, Александр Белый, Елена Борзунова
Описание: Джек — звукорежиссёр на киностудии, снимающей второсортные фильмы ужасов. Однажды, озвучивая очередной фильм, он слышит странные звуки и записывает их. Оказывается, это звук выстрела и пробитой шины автомобиля, попавшего в аварию, в результате которой погиб кандидат в президенты США. У Джека на руках доказательство того, что автокатастрофа не была несчастным случаем, и против него — целая политическая группировка.
Доп. информация: Найденный в сети блюр, содержащий английский оригинал и английские субтитры, преобразован в ремукс, в него добавлены синхронизированные sovsem-neduhoven русские субтитры из релиза - http://rutracker.org/forum/viewtopic.php?t=3556649 - и синхронизированные Нордером:
- двухголоска из релиза - http://rutracker.org/forum/viewtopic.php?t=331009;
- многоголоска и одноголоска из релиза - http://rutracker.org/forum/viewtopic.php?t=3556649;
- одноголоска из релиза - http://rutracker.org/forum/viewtopic.php?t=4803397;
- двухголоска из релиза - http://rutracker.org/forum/viewtopic.php?t=5085639;
- двухголоска из релиза - http://rutracker.org/forum/viewtopic.php?t=5284800;
- одноголоска из релиза - http://rutracker.org/forum/viewtopic.php?t=5446829.
Оригинальный PCM-звук упакован во FLAC программой eac3to.
Сэмпл: https://cloud.mail.ru/public/FLbd/vDMEsczqU
Тип релиза: BDRemux 1080p
Контейнер: MKV
Видео: 29999 Кбит/сек, AVC (NTSC) 1920*1080 (16:9), 23,976 кадра/сек, CABAC
Аудио: Русский, 192 Кбит/сек, 48,0 КГц, 16 бит, 2 канала, AC-3 - НТВ
Аудио 2: Русский, 192 Кбит/сек, 48,0 КГц, 16 бит, 2 канала, AC-3 - ВГТРК
Аудио 3: Русский, 192 Кбит/сек, 48,0 КГц, 16 бит, 2 канала, AC-3 - Екатеринбург Арт
Аудио 4: Русский, 192 Кбит/сек, 48,0 КГц, 16 бит, 2 канала, AC-3 - Интервидео
Аудио 5: Русский, 192 Кбит/сек, 48,0 КГц, 16 бит, 2 канала, AC-3 - Гаврилов
Аудио 6: Русский, 192 Кбит/сек, 48,0 КГц, 16 бит, 2 канала, AC-3 - Горчаков
Аудио 7: Русский, DTS MA: 2.0 / 48,0 КГц / 2048 Кбит/сек / 24 бит / (DTS Core: 2.0 / 48,0 КГц / 1509 Кбит/сек / 24 бит) - Михалёв
Аудио 8: Английский, 463 Кбит/сек, 48,0 КГц, 16 бит, 2 канала, FLAC
Формат субтитров: softsub (SRT)
Код: Выделить всё
Общее
Уникальный идентификатор                 : 48576195607683191889457229622303767046 (0x248B6F5A3A731338759435C208D7BA06)
Полное имя                               : J:\MONAR\Видео\Художественные фильмы\Зарубежное кино\Прокол (1981) BDRemux 1080p.mkv
Формат                                   : Matroska
Версия формата                           : Version 4 / Version 2
Размер файла                             : 24,7 Гбайт
Продолжительность                        : 1 ч. 47 м.
Режим общего битрейта                    : Переменный
Общий поток                              : 32,8 Мбит/сек
Название фильма                          : Blow out (1981)
Дата кодирования                         : UTC 2018-05-16 17:06:25
Программа кодирования                    : mkvmerge v23.0.0 ('The Bride Said No') 64-bit
Библиотека кодирования                   : libebml v1.3.6 + libmatroska v1.4.9
Видео
Идентификатор                            : 1
Формат                                   : AVC
Формат/Информация                        : Advanced Video Codec
Профиль формата                          : High@L4.1
Настройки формата                        : CABAC / 4 Ref Frames
Параметр CABAC формата                   : Да
Параметр RefFrames формата               : 4 кадра
Параметр GOP формата                     : M=3, N=24
Идентификатор кодека                     : V_MPEG4/ISO/AVC
Продолжительность                        : 1 ч. 47 м.
Вид битрейта                             : Постоянный
Битрейт                                  : 30,0 Мбит/сек
Ширина                                   : 1920 пикселей
Высота                                   : 1080 пикселей
Соотношение сторон                       : 16:9
Режим частоты кадров                     : Постоянный
Частота кадров                           : 23,976 (24000/1001) кадра/сек
Стандарт вещания                         : NTSC
Цветовое пространство                    : YUV
Субдискретизация насыщенности            : 4:2:0
Битовая глубина                          : 8 бит
Тип развёртки                            : Прогрессивная
Бит/(Пиксели*Кадры)                      : 0.603
Размер потока                            : 21,9 Гбайт (89%)
Язык                                     : English
Default                                  : Да
Forced                                   : Нет
Цветовой диапазон                        : Limited
Основные цвета                           : BT.709
Характеристики трансфера                 : BT.709
Коэффициенты матрицы                     : BT.709
Аудио #1
Идентификатор                            : 2
Формат                                   : AC-3
Формат/Информация                        : Audio Coding 3
Идентификатор кодека                     : A_AC3
Продолжительность                        : 1 ч. 47 м.
Вид битрейта                             : Постоянный
Битрейт                                  : 192 Кбит/сек
Каналы                                   : 2 канала
Расположение каналов                     : Front: L R
Частота                                  : 48,0 КГц
Частота кадров                           : 31,250 кадров/сек (1536 SPF)
Битовая глубина                          : 16 бит
Метод сжатия                             : С потерями
Размер потока                            : 148 Мбайт (1%)
Заголовок                                : MVO
Язык                                     : Russian
ServiceKind/String                       : Complete Main
Default                                  : Да
Forced                                   : Нет
Аудио #2
Идентификатор                            : 3
Формат                                   : AC-3
Формат/Информация                        : Audio Coding 3
Идентификатор кодека                     : A_AC3
Продолжительность                        : 1 ч. 47 м.
Вид битрейта                             : Постоянный
Битрейт                                  : 192 Кбит/сек
Каналы                                   : 2 канала
Расположение каналов                     : Front: L R
Частота                                  : 48,0 КГц
Частота кадров                           : 31,250 кадров/сек (1536 SPF)
Битовая глубина                          : 16 бит
Метод сжатия                             : С потерями
Размер потока                            : 148 Мбайт (1%)
Заголовок                                : DVO
Язык                                     : Russian
ServiceKind/String                       : Complete Main
Default                                  : Нет
Forced                                   : Нет
Аудио #3
Идентификатор                            : 4
Формат                                   : AC-3
Формат/Информация                        : Audio Coding 3
Идентификатор кодека                     : A_AC3
Продолжительность                        : 1 ч. 47 м.
Вид битрейта                             : Постоянный
Битрейт                                  : 192 Кбит/сек
Каналы                                   : 2 канала
Расположение каналов                     : Front: L R
Частота                                  : 48,0 КГц
Частота кадров                           : 31,250 кадров/сек (1536 SPF)
Битовая глубина                          : 16 бит
Метод сжатия                             : С потерями
Размер потока                            : 148 Мбайт (1%)
Заголовок                                : DVO
Язык                                     : Russian
ServiceKind/String                       : Complete Main
Default                                  : Нет
Forced                                   : Нет
Аудио #4
Идентификатор                            : 5
Формат                                   : AC-3
Формат/Информация                        : Audio Coding 3
Идентификатор кодека                     : A_AC3
Продолжительность                        : 1 ч. 47 м.
Вид битрейта                             : Постоянный
Битрейт                                  : 192 Кбит/сек
Каналы                                   : 2 канала
Расположение каналов                     : Front: L R
Частота                                  : 48,0 КГц
Частота кадров                           : 31,250 кадров/сек (1536 SPF)
Битовая глубина                          : 16 бит
Метод сжатия                             : С потерями
Размер потока                            : 148 Мбайт (1%)
Заголовок                                : DVO
Язык                                     : Russian
ServiceKind/String                       : Complete Main
Default                                  : Нет
Forced                                   : Нет
Аудио #5
Идентификатор                            : 6
Формат                                   : AC-3
Формат/Информация                        : Audio Coding 3
Идентификатор кодека                     : A_AC3
Продолжительность                        : 1 ч. 47 м.
Вид битрейта                             : Постоянный
Битрейт                                  : 192 Кбит/сек
Каналы                                   : 2 канала
Расположение каналов                     : Front: L R
Частота                                  : 48,0 КГц
Частота кадров                           : 31,250 кадров/сек (1536 SPF)
Битовая глубина                          : 16 бит
Метод сжатия                             : С потерями
Размер потока                            : 148 Мбайт (1%)
Заголовок                                : AVO
Язык                                     : Russian
ServiceKind/String                       : Complete Main
Default                                  : Нет
Forced                                   : Нет
Аудио #6
Идентификатор                            : 7
Формат                                   : AC-3
Формат/Информация                        : Audio Coding 3
Идентификатор кодека                     : A_AC3
Продолжительность                        : 1 ч. 47 м.
Вид битрейта                             : Постоянный
Битрейт                                  : 192 Кбит/сек
Каналы                                   : 2 канала
Расположение каналов                     : Front: L R
Частота                                  : 48,0 КГц
Частота кадров                           : 31,250 кадров/сек (1536 SPF)
Битовая глубина                          : 16 бит
Метод сжатия                             : С потерями
Размер потока                            : 148 Мбайт (1%)
Заголовок                                : AVO
Язык                                     : Russian
ServiceKind/String                       : Complete Main
Default                                  : Нет
Forced                                   : Нет
Аудио #7
Идентификатор                            : 8
Формат                                   : DTS
Формат/Информация                        : Digital Theater Systems
Профиль формата                          : MA / Core
Идентификатор кодека                     : A_DTS
Продолжительность                        : 1 ч. 47 м.
Вид битрейта                             : Переменный / Постоянный
Битрейт                                  : 2048 Кбит/сек / 1509 Кбит/сек
Каналы                                   : 2 канала
Расположение каналов                     : Front: L R
Частота                                  : 48,0 КГц
Частота кадров                           : 93,750 кадра/сек (512 SPF)
Битовая глубина                          : 24 бит
Метод сжатия                             : Без потерь / Lossy
Размер потока                            : 1,55 Гбайт (6%)
Заголовок                                : AVO
Язык                                     : Russian
Default                                  : Нет
Forced                                   : Нет
Аудио #8
Идентификатор                            : 9
Формат                                   : FLAC
Формат/Информация                        : Free Lossless Audio Codec
Идентификатор кодека                     : A_FLAC
Продолжительность                        : 1 ч. 47 м.
Вид битрейта                             : Переменный
Битрейт                                  : 463 Кбит/сек
Каналы                                   : 2 канала
Расположение каналов                     : Front: L R
Частота                                  : 48,0 КГц
Частота кадров                           : 11,719 кадров/сек (4096 SPF)
Битовая глубина                          : 16 бит
Размер потока                            : 357 Мбайт (1%)
Заголовок                                : original
Библиотека кодирования                   : libFLAC 1.2.1 (UTC 2007-09-17)
Язык                                     : English
Default                                  : Нет
Forced                                   : Нет
Текст #1
Идентификатор                            : 10
Формат                                   : UTF-8
Идентификатор кодека                     : S_TEXT/UTF8
Идентификатор кодека/Информация          : UTF-8 Plain Text
Продолжительность                        : 1 ч. 43 м.
Битрейт                                  : 114 бит/сек
ElementCount                             : 1137
Размер потока                            : 86,6 Кбайт (0%)
Заголовок                                : srt
Язык                                     : Russian
Default                                  : Нет
Forced                                   : Нет
Текст #2
Идентификатор                            : 11
Формат                                   : UTF-8
Идентификатор кодека                     : S_TEXT/UTF8
Идентификатор кодека/Информация          : UTF-8 Plain Text
Продолжительность                        : 1 ч. 44 м.
Битрейт                                  : 69 бит/сек
ElementCount                             : 1266
Размер потока                            : 53,6 Кбайт (0%)
Заголовок                                : srt
Язык                                     : English
Default                                  : Нет
Forced                                   : Нет
Меню
00:00:00.000                             : en:Chapter 1
00:09:22.520                             : en:Chapter 2
00:17:56.450                             : en:Chapter 3
00:26:00.934                             : en:Chapter 4
00:36:17.842                             : en:Chapter 5
00:45:39.111                             : en:Chapter 6
00:54:44.948                             : en:Chapter 7
01:03:34.018                             : en:Chapter 8
01:11:18.565                             : en:Chapter 9
01:19:37.522                             : en:Chapter 10
01:28:52.160                             : en:Chapter 11
01:37:06.737                             : en:Chapter 12
 
Не забывайте говорить Спасибо. Не уходите с раздачи!   
Торрент: Зарегистрирован [16 май 2018, 21:38] Для скачивания .torrent
необходима регистрация
Или скачать с помощью
MediaGet
Статус:
Проверен
 
.torrent скачан: 0 раз
Хэш: b5eda1718ed7690a85b540b084c1e01b0bc65654
Размер: 24.71 ГБ (26 535 323 711 байт)
Стать Автором раздачи
 
 
Раздал: 0 байт
Скачал: 0 байт
Ратио: Inf.
Сообщения: 487468
Зарегистрирован: 17 апр 2014, 13:57


  • Похожие торренты
    Ответы
    Просмотры
    Последнее сообщение

Вернуться в HD Video на модерации

Ресурс не предоставляет электронные версии произведений, а занимается лишь коллекционированием и каталогизацией ссылок, присылаемых и публикуемых на форуме нашими читателями. Если вы являетесь правообладателем какого-либо представленного материала и не желаете чтобы ссылка на него находилась в нашем каталоге, свяжитесь с нами и мы незамедлительно удалим её. Файлы для обмена на трекере предоставлены пользователями сайта, и администрация не несёт ответственности за их содержание. Просьба не заливать файлы, защищенные авторскими правами, а также файлы нелегального содержания!
cron