Конченая / Terminal (Вон Стайн / Vaughn Stein) [2018, Ирландия, Великобритания, Гонконг, Венгрия, США, триллер, криминал, драма, WEB-DLRip] MVO (MuzOboz)

 
 Статистика раздачи 
Размер: 1.46 ГБ   |  Зарегистрирован: 16 май 2018, 19:50   |   .torrent скачан: 0 раз
Сидеров: 1  [ 0 байт/сек ]     Личеров: 0  [ 0 байт/сек ]  
  

Конченая / Terminal (Вон Стайн / Vaughn Stein) [2018, Ирландия, Великобритания, Гонконг, Венгрия, США, триллер, криминал, драма, WEB-DLRip] MVO (MuzOboz)

Сообщение Nakazhu » 16 май 2018, 19:51

Конченая / Terminal
Страна: Ирландия, Великобритания, Гонконг, Венгрия, США
Жанр: триллер, криминал, драма
Год выпуска: 2018
Продолжительность: 01:35:32
Перевод: Любительский (многоголосый закадровый) | MuzOboz
Субтитры: нет
Оригинальная аудиодорожка: нет
Режиссер:
Вон Стайн / Vaughn Stein
В ролях:
Марго Робби (Annie), Саймон Пегг (Bill), Декстер Флетчер (Vince), Макс Айронс (Alfred), Майк Майерс (Clinton), Катарина Час (Chloe Merryweather), Ник Моран (Illing), Лес Лавдей (Young Clinton), Джордан Данн (Conejo)
Описание:
Фильм окунет вас в опасный мир английского криминала. В центре истории — роковая особа Энни, предстающая в разных амплуа. Она ведет сложную игру с несколькими мужчинами, которых — на первый взгляд — ничто не связывает. Стравливая их друг с другом, она преследует свою жестокую цель.
Что это: раздвоение личности? Или четко спланированная игра коварной обольстительницы?
Качество видео: WEB-DLRip
Формат видео: AVI
Видео: 720x400 (1.80:1), 23.976 fps, XviD build 73 ~1725 kbps avg, 0.25 bit/pixel
Аудио: 48 kHz, AC3 Dolby Digital, 3/2 (L,C,R,l,r) + LFE ch, ~448 kbps
Сэмпл
Код: Выделить всё
Код:
Код: Выделить всё
Format                      : AVI
Format/Info                 : Audio Video Interleave
File size                   : 1.46 GiB
Duration                    : 1 h 35 min
Overall bit rate            : 2 183 kb/s
Writing application         : VirtualDubMod 1.5.10.3 | www.virtualdub-fr.org || (build 2550/release)
Writing library             : VirtualDubMod build 2550/release
Video
ID                          : 0
Format                      : MPEG-4 Visual
Format profile              : Advanced Simple@L5
Format settings             : BVOP1 / Custom Matrix
Format settings, BVOP       : 1
Format settings, QPel       : No
Format settings, GMC        : No warppoints
Format settings, Matrix     : Custom
Codec ID                    : XVID
Codec ID/Hint               : XviD
Duration                    : 1 h 35 min
Bit rate                    : 1 726 kb/s
Width                       : 720 pixels
Height                      : 400 pixels
Display aspect ratio        : 16:9
Frame rate                  : 23.976 (24000/1001) FPS
Color space                 : YUV
Chroma subsampling          : 4:2:0
Bit depth                   : 8 bits
Scan type                   : Progressive
Compression mode            : Lossy
Bits/(Pixel*Frame)          : 0.250
Stream size                 : 1.15 GiB (79%)
Writing library             : XviD 73
Audio
ID                          : 1
Format                      : AC-3
Format/Info                 : Audio Coding 3
Codec ID                    : 2000
Duration                    : 1 h 35 min
Bit rate mode               : Constant
Bit rate                    : 448 kb/s
Channel(s)                  : 6 channels
Channel positions           : Front: L C R, Side: L R, LFE
Sampling rate               : 48.0 kHz
Frame rate                  : 31.250 FPS (1536 SPF)
Bit depth                   : 16 bits
Compression mode            : Lossy
Stream size                 : 306 MiB (21%)
Alignment                   : Split accross interleaves
Interleave, duration        : 42  ms (1.00 video frame)
Interleave, preload duratio : 500  ms
Service kind                : Complete Main

При появлении проф. озвучки, перезалью.
 
Не забывайте говорить Спасибо. Не уходите с раздачи!   
Торрент: Зарегистрирован [16 май 2018, 19:50] Для скачивания .torrent
необходима регистрация
Или скачать с помощью
MediaGet
Статус:
Проверен
 
.torrent скачан: 0 раз
Хэш: 0224c3af6029def164c30848577453974853d2cb
Размер: 1.46 ГБ (1 564 149 760 байт)
Стать Автором раздачи
 
 
Раздал: 0 байт
Скачал: 0 байт
Ратио: Inf.
Сообщения: 487468
Зарегистрирован: 17 апр 2014, 13:57


  • Похожие торренты
    Ответы
    Просмотры
    Последнее сообщение

Вернуться в Зарубежное кино

Ресурс не предоставляет электронные версии произведений, а занимается лишь коллекционированием и каталогизацией ссылок, присылаемых и публикуемых на форуме нашими читателями. Если вы являетесь правообладателем какого-либо представленного материала и не желаете чтобы ссылка на него находилась в нашем каталоге, свяжитесь с нами и мы незамедлительно удалим её. Файлы для обмена на трекере предоставлены пользователями сайта, и администрация не несёт ответственности за их содержание. Просьба не заливать файлы, защищенные авторскими правами, а также файлы нелегального содержания!
cron