[MULT] Рождественская история / A Christmas Carol (Стэн Филлипс / Stan Phillips) [1999, мультфильм, фэнтези, драма, DVDRip] [MP4, 640x] VO Живов

 
 Статистика раздачи 
Размер: 356.01 МБ   |  Зарегистрирован: 16 май 2018, 17:15   |   .torrent скачан: 0 раз
Сидеров: 1  [ 0 байт/сек ]     Личеров: 0  [ 0 байт/сек ]  
  

[MULT] Рождественская история / A Christmas Carol (Стэн Филлипс / Stan Phillips) [1999, мультфильм, фэнтези, драма, DVDRip] [MP4, 640x] VO Живов

Сообщение Nakazhu » 16 май 2018, 17:15

Рождественская история / A Christmas Carol


Год выпуска: 1999
Страна: США
Жанр: мультфильм, фэнтези, драма
Продолжительность: 01:09:55
Перевод: русский Авторский (одноголосый, закадровый) Юрий Живов
Субтитры: нет

Режиссер: Стэн Филлипс / Stan Phillips
Роли озвучивали: Тим Карри, Вупи Голдберг, Майкл Йорк, Эдвард Эснер, Фрэнк Уэлкер, Кэт Сауси, Джоди Бенсон, Джон Гарри, Эмик Байрэм, Йен Уиткомб .
Описание: Похоронив своего давнего друга и партнера по бизнесу, Эбенезер Скрудж, и так не отличавшийся особой душевной добротой, впал в уныние и возненавидел весь окружающий мир. Особенно достается его верному и безответному помощнику Бобу Крэтчиту. Но когда в Рождественскую ночь Скруджу являются Духи Рождества, они открывают ему глаза на его прошлое, настоящее и будущее. Скрудж понимает, что в погоне за богатством лишился самого главного: счастья любить и быть любимым. Умоляя Духов дать ему второй шанс, Скрудж обещает изменить образ жизни и навсегда «впустить Рождество к себе в сердце»…
Релиз группы
Качество: DVDRip / рип с DVD5 (Custom)
Формат: MP4
Видео кодек: H.264
Аудио кодек: AAC
Видео: 472x360 AR:1.31 580 kbps 23.976 fps
Аудио: [Russian] 1ch 48 kHz 128 kbps - [VO] Авторский (одноголосый, закадровый) Юрий Живов
avs [info]: 472x360p 1:1 @ 24000/1001 fps (cfr)
x264 [info]: using SAR=1/1
x264 [info]: using cpu capabilities: MMX2 SSE2Fast SSSE3 SSE4.2 AVX FMA3 BMI2 AVX2
x264 [info]: profile High, level 4.1
x264 [info]: frame I:990 Avg QP:17.59 size: 32632
x264 [info]: frame P:25530 Avg QP:21.24 size: 6596
x264 [info]: frame B:74059 Avg QP:22.24 size: 1397
x264 [info]: consecutive B-frames: 3.3% 4.0% 12.0% 36.4% 25.6% 11.4% 4.1% 1.9% 1.3%
x264 [info]: mb I I16..4: 2.1% 53.0% 44.8%
x264 [info]: mb P I16..4: 0.4% 2.3% 2.1% P16..4: 32.0% 29.2% 14.7% 4.0% 0.7% skip:14.6%
x264 [info]: mb B I16..4: 0.0% 0.2% 0.2% B16..8: 26.2% 9.9% 2.6% direct: 2.1% skip:58.8% L0:42.8% L1:48.9% BI: 8.3%
x264 [info]: 8x8 transform intra:49.2% inter:42.9%
x264 [info]: direct mvs spatial:96.3% temporal:3.7%
x264 [info]: coded y,uvDC,uvAC intra: 86.5% 90.3% 75.2% inter: 12.8% 13.4% 6.9%
x264 [info]: i16 v,h,dc,p: 38% 17% 10% 35%
x264 [info]: i8 v,h,dc,ddl,ddr,vr,hd,vl,hu: 13% 12% 10% 9% 11% 10% 11% 10% 13%
x264 [info]: i4 v,h,dc,ddl,ddr,vr,hd,vl,hu: 16% 10% 4% 10% 13% 12% 12% 11% 13%
x264 [info]: i8c dc,h,v,p: 39% 23% 23% 14%
x264 [info]: Weighted P-Frames: Y:12.7% UV:5.3%
x264 [info]: ref P L0: 54.7% 10.2% 16.3% 5.6% 4.8% 4.0% 3.9% 0.5% 0.0%
x264 [info]: ref B L0: 79.5% 10.0% 4.9% 2.7% 1.7% 1.2%
x264 [info]: ref B L1: 95.2% 4.8%
x264 [info]: kb/s:580.00
encoded 100579 frames, 39.30 fps, 580.01 kb/s
Код: Выделить всё
General
Complete name               : D:\Torrents\Rozhdestvenskaya istoriya.1999.DVDRip.x264.640x.rip by Frost O.S.mp4
Format                      : MPEG-4
Format profile              : 3GPP Media Release 6 Basic
Codec ID                    : 3gp6 (isom/3gp6/avc1/mp42)
File size                   : 356 MiB
Duration                    : 1 h 9 min
Overall bit rate mode       : Variable
Overall bit rate            : 712 kb/s
Encoded date                : UTC 2018-05-16 13:58:55
Tagged date                 : UTC 2018-05-16 13:58:55
Writing application         : Yamb 2.1.0.0
Video
ID                          : 1
Format                      : AVC
Format/Info                 : Advanced Video Codec
Format profile              : High@L4.1
Format settings, CABAC      : Yes
Format settings, ReFrames   : 7 frames
Codec ID                    : avc1
Codec ID/Info               : Advanced Video Coding
Duration                    : 1 h 9 min
Bit rate                    : 580 kb/s
Maximum bit rate            : 1 930 kb/s
Width                       : 472 pixels
Height                      : 360 pixels
Display aspect ratio        : 4:3
Frame rate mode             : Constant
Frame rate                  : 23.976 (24000/1001) FPS
Color space                 : YUV
Chroma subsampling          : 4:2:0
Bit depth                   : 8 bits
Scan type                   : Progressive
Bits/(Pixel*Frame)          : 0.142
Stream size                 : 290 MiB (81%)
Writing library             : x264 core 152 r2851 ba24899
Encoding settings           : cabac=1 / ref=7 / deblock=1:-1:-1 / analyse=0x3:0x133 / me=umh / subme=11 / psy=1 / psy_rd=0.80:0.00 / mixed_ref=1 / me_range=48 / chroma_me=1 / trellis=2 / 8x8dct=1 / cqm=0 / deadzone=21,11 / fast_pskip=0 / chroma_qp_offset=-2 / threads=6 / lookahead_threads=1 / sliced_threads=0 / nr=0 / decimate=0 / interlaced=0 / bluray_compat=0 / constrained_intra=0 / bframes=8 / b_pyramid=2 / b_adapt=2 / b_bias=0 / direct=3 / weightb=1 / open_gop=0 / weightp=2 / keyint=250 / keyint_min=23 / scenecut=40 / intra_refresh=0 / rc=2pass / mbtree=0 / bitrate=580 / ratetol=1.0 / qcomp=0.65 / qpmin=0 / qpmax=69 / qpstep=4 / cplxblur=20.0 / qblur=0.5 / ip_ratio=1.40 / pb_ratio=1.30 / aq=1:0.90
Encoded date                : UTC 2018-05-16 13:47:26
Tagged date                 : UTC 2018-05-16 13:58:56
Color range                 : Limited
Color primaries             : BT.601 PAL
Transfer characteristics    : BT.470 System B, BT.470 System G
Matrix coefficients         : BT.601
Audio
ID                          : 2
Format                      : AAC
Format/Info                 : Advanced Audio Codec
Format profile              : LC
Codec ID                    : 40
Duration                    : 1 h 9 min
Bit rate mode               : Variable
Bit rate                    : 128 kb/s
Maximum bit rate            : 131 kb/s
Channel(s)                  : 1 channel
Channel positions           : Front: C
Sampling rate               : 48.0 kHz
Frame rate                  : 46.875 FPS (1024 spf)
Compression mode            : Lossy
Stream size                 : 64.0 MiB (18%)
Encoded date                : UTC 2018-05-16 13:51:51
Tagged date                 : UTC 2018-05-16 13:58:56


 
Не забывайте говорить Спасибо. Не уходите с раздачи!   
Торрент: Зарегистрирован [16 май 2018, 17:15] Для скачивания .torrent
необходима регистрация
Или скачать с помощью
MediaGet
Статус:
Проверен
 
.torrent скачан: 0 раз
Хэш: 765491344802aa9719aae99f1f00c785944f05ef
Размер: 356.01 МБ (373 300 544 байт)
Стать Автором раздачи
 
 
Раздал: 0 байт
Скачал: 0 байт
Ратио: Inf.
Сообщения: 487468
Зарегистрирован: 17 апр 2014, 13:57


  • Похожие торренты
    Ответы
    Просмотры
    Последнее сообщение

Вернуться в Видео для смартфонов и КПК

Ресурс не предоставляет электронные версии произведений, а занимается лишь коллекционированием и каталогизацией ссылок, присылаемых и публикуемых на форуме нашими читателями. Если вы являетесь правообладателем какого-либо представленного материала и не желаете чтобы ссылка на него находилась в нашем каталоге, свяжитесь с нами и мы незамедлительно удалим её. Файлы для обмена на трекере предоставлены пользователями сайта, и администрация не несёт ответственности за их содержание. Просьба не заливать файлы, защищенные авторскими правами, а также файлы нелегального содержания!
cron