Ночь страха в 3Д / Fright Night 3D (Крэйг Гиллеспи / Craig Gillespie) [2011, Ужасы, Триллер, Комедия, BDrip, 1080p] OverUnder / Вертикальная стереопара

 
 Статистика раздачи 
Размер: 24.63 ГБ   |  Зарегистрирован: 16 май 2018, 16:29   |   .torrent скачан: 0 раз
Сидеров: 1  [ 0 байт/сек ]     Личеров: 0  [ 0 байт/сек ]  
  

Ночь страха в 3Д / Fright Night 3D (Крэйг Гиллеспи / Craig Gillespie) [2011, Ужасы, Триллер, Комедия, BDrip, 1080p] OverUnder / Вертикальная стереопара

Сообщение Nakazhu » 16 май 2018, 16:29

Ночь страха / Fright Night
Год выпуска: 2011
Страна: США, Индия (DreamWorks Pictures, Reliance Entertainment)
Жанр: Ужасы, Триллер, Комедия
Продолжительность: 01:45:57
Перевод: Профессиональный дублированный(лицензия)
Русские субтитры: нет
Режиссер на русском: Крэйг Гиллеспи / Craig Gillespie
В ролях: Колин Фаррелл, Антон Ельчин, Тони Коллетт, Дэвид Теннант, Имоджен Путс, Кристофер Минц-Плассе, Дэйв Франко, Рейд Юинг, Уилл Дентон, Сандра Вергара
Описание: Выпускник школы Чарли Брюстер находится на пике своей ученической карьеры: он популярен среди сверстников и встречается с самой очаровательной девушкой во всей школе. Он становится настолько крут, что начинает избегать своего когда-то лучшего друга Эда. Неприятности для Чарли начинаются, когда по соседству прописывается Джерри.
На первый взгляд он кажется хорошим парнем, но все же что-то с ним не так, хотя никто этого не замечает, даже мать Чарли. После анализа странного поведения соседа Чарли приходит к ужасному, но, увы, единственному верному заключению: под лживой маской Джерри скрывается кровожадный вампир, который сделал его район своими охотничьими угодьями.
Не в силах убедить кого бы то ни было в своей правоте, Чарли обращается за помощью и советом к популярному иллюзионисту из Лас-Вегаса Питеру Винсенту, рассчитывая, что кудесник поможет ему избавиться от монстра.
Сэмпл: http://sendfile.su/1419585
Качество: BDrip
Контейнер: MKV
Формат 3D: OverUnder / Вертикальная стереопара
Порядок ракурсов: левый ракурс первый
Видео кодек: x264
Аудио кодек: AC3
Видео: AVC / High@L5.0 / 23,976 fps / 1920х2160 / 34,2 Мбит/сек
Аудио: Русский / AC3 / 48 KHz / 5.1 ch / 640 Кбит/сек
Аудио 2: Английский / AC3 / 48 KHz / 5.1 ch / 640 Кбит/сек
ВНИМАНИЕ ! На встроенных ТВ-плеерах работать не будет!!!
ТВ Samsung в названии которого есть надпись Ultra HD , и LG Ultra HD 800 серии, LG C6P, Xiaomi Mi TV 2 воспроизводят полные стереопары встроенными плеерами
Железные плееры на которых воспроизводятся полные стереопары:Popcorn C-200 , Dune HD Smart D1 , Dune HD DUO , Dune HD Smart H1 , Dune HD Smart B1 , Dune HD Max , Dune HD TV-303D, Dune HD TV-102, Dune HD Base 3D, Philips HMP7001, Aura HD, MECOOL BB2
Чтобы изображение было на весь экран в плеере выставляем, если рип 1920х1600 - то выставляем 2.35:1 , если 1920х2160 - то выставляем 16:9
Общее
Уникальный идентификатор : 221062668367331850343530975868460826165 (0xA64F1F0ADC785FCFA79A287A71257E35)
Полное имя : F:\закачки\Fright Night.Rip by SeRoGa00.mkv
Формат : Matroska
Версия формата : Version 2
Размер файла : 24,6 Гбайт
Продолжительность : 1 ч. 45 м.
Общий поток : 33,3 Мбит/сек
Дата кодирования : UTC 2018-05-16 02:11:29
Программа кодирования : mkvmerge v3.4.0 ('Rapunzel') сборка от May 15 2010 09:38:20
Библиотека кодирования : libebml v0.8.0 + libmatroska v0.9.0
Видео
Идентификатор : 1
Формат : AVC
Формат/Информация : Advanced Video Codec
Профиль формата : High@L5.0
Параметр CABAC формата : Да
Параметр ReFrames формата : 4 кадра
Идентификатор кодека : V_MPEG4/ISO/AVC
Продолжительность : 1 ч. 45 м.
Битрейт : 31,3 Мбит/сек
Ширина : 1920 пикселей
Высота : 2160 пикселей
Соотношение сторон : 0,889
Частота кадров : 23,976 кадра/сек
Цветовое пространство : YUV
Субдискретизация насыщенности : 4:2:0
Битовая глубина : 8 бит
Тип развёртки : Прогрессивная
Бит/(Пиксели*Кадры) : 0.315
Размер потока : 23,2 Гбайт (94%)
Заголовок : Rip by SeRoGa00
Библиотека кодирования : x264 core 155 r2901 7d0ff22
Настройки программы : cabac=1 / ref=4 / deblock=1:-3:-3 / analyse=0x3:0x113 / me=umh / subme=10 / psy=1 / psy_rd=1.00:0.15 / mixed_ref=1 / me_range=24 / chroma_me=1 / trellis=2 / 8x8dct=1 / cqm=0 / deadzone=21,11 / fast_pskip=1 / chroma_qp_offset=-3 / threads=12 / lookahead_threads=6 / sliced_threads=0 / nr=0 / decimate=0 / interlaced=0 / bluray_compat=0 / constrained_intra=0 / bframes=10 / b_pyramid=2 / b_adapt=2 / b_bias=0 / direct=3 / weightb=1 / open_gop=0 / weightp=2 / keyint=250 / keyint_min=23 / scenecut=40 / intra_refresh=0 / rc_lookahead=60 / rc=crf / mbtree=1 / crf=16.0 / qcomp=0.60 / qpmin=10 / qpmax=69 / qpstep=4 / vbv_maxrate=40000 / vbv_bufsize=40000 / crf_max=0.0 / nal_hrd=none / filler=0 / ip_ratio=1.40 / aq=1:1.00
Язык : English
Default : Нет
Forced : Нет
Аудио #1
Идентификатор : 2
Формат : AC-3
Формат/Информация : Audio Coding 3
Расширение режима : CM (complete main)
Параметр Endianness формата : Big
Идентификатор кодека : A_AC3
Продолжительность : 1 ч. 45 м.
Вид битрейта : Постоянный
Битрейт : 640 Кбит/сек
Каналы : 6 каналов
Расположение каналов : Front: L C R, Side: L R, LFE
Частота : 48,0 КГц
Битовая глубина : 16 бит
Метод сжатия : С потерями
Размер потока : 485 Мбайт (2%)
Язык : Russian
Default : Да
Forced : Нет
Аудио #2
Идентификатор : 3
Формат : AC-3
Формат/Информация : Audio Coding 3
Расширение режима : CM (complete main)
Параметр Endianness формата : Big
Идентификатор кодека : A_AC3
Продолжительность : 1 ч. 45 м.
Вид битрейта : Постоянный
Битрейт : 640 Кбит/сек
Каналы : 6 каналов
Расположение каналов : Front: L C R, Side: L R, LFE
Частота : 48,0 КГц
Битовая глубина : 16 бит
Метод сжатия : С потерями
Размер потока : 485 Мбайт (2%)
Язык : English
Default : Нет
Forced : Нет
Меню
00:00:00.000 : en:00:00:00.000
00:03:18.824 : en:00:03:18.824
00:08:09.531 : en:00:08:09.531
00:13:27.682 : en:00:13:27.682
00:18:02.790 : en:00:18:02.790
00:22:20.130 : en:00:22:20.130
00:29:50.789 : en:00:29:50.789
00:33:50.862 : en:00:33:50.862
00:40:25.757 : en:00:40:25.757
00:45:05.202 : en:00:45:05.202
00:52:02.786 : en:00:52:02.786
00:58:06.358 : en:00:58:06.358
01:04:17.645 : en:01:04:17.645
01:09:29.624 : en:01:09:29.624
01:16:26.332 : en:01:16:26.332
01:19:17.670 : en:01:19:17.670
01:24:27.229 : en:01:24:27.229
01:30:26.796 : en:01:30:26.796
01:36:37.333 : en:01:36:37.333
01:38:21.395 : en:01:38:21.395





 
Не забывайте говорить Спасибо. Не уходите с раздачи!   
Торрент: Зарегистрирован [16 май 2018, 16:29] Скачать торрент
Скачать торрент
[ Размер 123.61 КБ / Просмотров 4 ]
Статус:
Проверен
 
.torrent скачан: 0 раз
Хэш: 301a548ee59ec8cdf8a5ba327f1e814ed83fa082
Размер: 24.63 ГБ (26 448 965 630 байт)
Стать Автором раздачи
 
 
Раздал: 0 байт
Скачал: 0 байт
Ратио: Inf.
Сообщения: 487468
Зарегистрирован: 17 апр 2014, 13:57


  • Похожие торренты
    Ответы
    Просмотры
    Последнее сообщение

Вернуться в 3D/Стерео (Кино, Мультфильмы, Видео, TV и Спорт)

Ресурс не предоставляет электронные версии произведений, а занимается лишь коллекционированием и каталогизацией ссылок, присылаемых и публикуемых на форуме нашими читателями. Если вы являетесь правообладателем какого-либо представленного материала и не желаете чтобы ссылка на него находилась в нашем каталоге, свяжитесь с нами и мы незамедлительно удалим её. Файлы для обмена на трекере предоставлены пользователями сайта, и администрация не несёт ответственности за их содержание. Просьба не заливать файлы, защищенные авторскими правами, а также файлы нелегального содержания!
cron