О, Париж! / Oh, Paris! (Александр Шмигун) [2010, Украина, мультфильм, WEBRip]

 
 Статистика раздачи 
Размер: 49.3 МБ   |  Зарегистрирован: 16 май 2018, 15:11   |   .torrent скачан: 0 раз
Сидеров: 1  [ 0 байт/сек ]     Личеров: 0  [ 0 байт/сек ]  
  

О, Париж! / Oh, Paris! (Александр Шмигун) [2010, Украина, мультфильм, WEBRip]

Сообщение Nakazhu » 16 май 2018, 15:11

О, Париж! / Oh, Paris!
Страна: Украина
Жанр: мультфильм
Продолжительность: 00:08:32
Год выпуска: 2010
Перевод: не требуется
Русские субтитры: нет
Режиссёр: Александр Шмигун
Описание: Одна старушка всю жизнь мечтала побывать в столице Франции, собирала статуэтки Эйфелевой башни, хранила открытки с изображением парижских улочек. И наконец у неё в руках есть билет, который доставит её в город мечты...
Качество: WEBRip-AVC
Формат: MKV
Видео: 599 kbps, 640х480 (4:3), 25.000 fps, AVC (High@L3.1)
Аудио: 192 kbps, 48.0 kHz, 16 bits, 2 channels, AC-3
Субтитры: отсутствуют
Код: Выделить всё
General
Unique ID                                : 186815364156255491740353743027441246881 (0x8C8B549470A05906851A1E945D5822A1)
Complete name                            : Oh, Paris! (2010).mkv
Format                                   : Matroska
Format version                           : Version 4 / Version 2
File size                                : 49.3 MiB
Duration                                 : 8mn 32s
Overall bit rate mode                    : Variable
Overall bit rate                         : 808 Kbps
Encoded date                             : UTC 2018-05-12 11:08:32
Writing application                      : mkvmerge v6.6.0 ('The Edge Of The In Between') built on Dec  1 2013 17:55:00
Writing library                          : libebml v1.3.0 + libmatroska v1.4.1
Video
ID                                       : 1
Format                                   : AVC
Format/Info                              : Advanced Video Codec
Format profile                           : Main@L3.0
Format settings, CABAC                   : Yes
Format settings, ReFrames                : 3 frames
Codec ID                                 : V_MPEG4/ISO/AVC
Duration                                 : 8mn 32s
Bit rate mode                            : Variable
Bit rate                                 : 599 Kbps
Maximum bit rate                         : 40.0 Mbps
Width                                    : 640 pixels
Height                                   : 480 pixels
Display aspect ratio                     : 4:3
Frame rate mode                          : Constant
Frame rate                               : 25.000 fps
Color space                              : YUV
Chroma subsampling                       : 4:2:0
Bit depth                                : 8 bits
Scan type                                : Progressive
Bits/(Pixel*Frame)                       : 0.078
Stream size                              : 36.6 MiB (74%)
Default                                  : Yes
Forced                                   : No
Audio
ID                                       : 2
Format                                   : AC-3
Format/Info                              : Audio Coding 3
Mode extension                           : CM (complete main)
Format settings, Endianness              : Big
Codec ID                                 : A_AC3
Duration                                 : 8mn 32s
Bit rate mode                            : Constant
Bit rate                                 : 192 Kbps
Channel(s)                               : 2 channels
Channel positions                        : Front: L R
Sampling rate                            : 48.0 KHz
Bit depth                                : 16 bits
Compression mode                         : Lossy
Stream size                              : 11.7 MiB (24%)
Default                                  : Yes
Forced                                   : No
 
Не забывайте говорить Спасибо. Не уходите с раздачи!   
Торрент: Зарегистрирован [16 май 2018, 15:11] Для скачивания .torrent
необходима регистрация
Или скачать с помощью
MediaGet
Статус:
Проверен
 
.torrent скачан: 0 раз
Хэш: 8444c5dfd49abbaf8cf8d24be5bbd553e06e81fb
Размер: 49.3 МБ (51 694 975 байт)
Стать Автором раздачи
 
 
Раздал: 0 байт
Скачал: 0 байт
Ратио: Inf.
Сообщения: 487468
Зарегистрирован: 17 апр 2014, 13:57


  • Похожие торренты
    Ответы
    Просмотры
    Последнее сообщение

Вернуться в Отечественные мультфильмы

Ресурс не предоставляет электронные версии произведений, а занимается лишь коллекционированием и каталогизацией ссылок, присылаемых и публикуемых на форуме нашими читателями. Если вы являетесь правообладателем какого-либо представленного материала и не желаете чтобы ссылка на него находилась в нашем каталоге, свяжитесь с нами и мы незамедлительно удалим её. Файлы для обмена на трекере предоставлены пользователями сайта, и администрация не несёт ответственности за их содержание. Просьба не заливать файлы, защищенные авторскими правами, а также файлы нелегального содержания!
cron