Носороги / Die Nashörner (Ян Леница / Jan Lenica) [1964, Германия, авторская анимация, экранизация, WEBRip]

 
 Статистика раздачи 
Размер: 158.2 МБ   |  Зарегистрирован: 16 май 2018, 14:55   |   .torrent скачан: 0 раз
Сидеров: 1  [ 0 байт/сек ]     Личеров: 0  [ 0 байт/сек ]  
  

Носороги / Die Nashörner (Ян Леница / Jan Lenica) [1964, Германия, авторская анимация, экранизация, WEBRip]

Сообщение Nakazhu » 16 май 2018, 14:55

Носороги / Die Nashörner
Страна: Германия
Жанр: авторская анимация, экранизация
Год выпуска: 1964
Продолжительность: 00:10:24
Перевод: не требуется
Субтитры: нет
Режиссёр: Ян Леница / Jan Lenica
Описание: Всё городское население охвачено непонятной эпидемией: люди постепенно превращаются в носорогов...
По одноимённой пьесе Эжена Ионеско. В своей интерпретации Ян Леница обошёлся вообще без диалогов.
Доп. информация: Специальное упоминание - Фестиваль в Кракове (1964)
Похвальное упоминание - Фестиваль в Оберхаузене (1964)
Текст пьесы здесь - http://rutracker.org/forum/viewtopic.php?t=2672463
Качество видео: WEBRip
Формат видео: AVI
Видео: 1987 kbps, 704х528 (4:3), 25.000 fps, MPEG-4 Visual (XviD)
Аудио: 128 kbps, 44.1 kHz, 2 channels, MPEG Audio (MP3)
General
Complete name : Die Nashorner (1964).avi
Format : AVI
Format/Info : Audio Video Interleave
File size : 158 MiB
Duration : 10mn 24s
Overall bit rate : 2 125 Kbps
Writing application : VirtualDubMod 1.5.10.2 (build 2540/release)
Writing library : VirtualDubMod build 2540/release
Video
ID : 0
Format : MPEG-4 Visual
Format profile : Advanced Simple@L4
Format settings, BVOP : 2
Format settings, QPel : No
Format settings, GMC : No warppoints
Format settings, Matrix : Default (H.263)
Codec ID : XVID
Codec ID/Hint : XviD
Duration : 10mn 24s
Bit rate : 1 987 Kbps
Width : 704 pixels
Height : 528 pixels
Display aspect ratio : 4:3
Frame rate : 25.000 fps
Color space : YUV
Chroma subsampling : 4:2:0
Bit depth : 8 bits
Scan type : Progressive
Compression mode : Lossy
Bits/(Pixel*Frame) : 0.214
Stream size : 148 MiB (94%)
Writing library : XviD 73
Audio
ID : 1
Format : MPEG Audio
Format version : Version 1
Format profile : Layer 3
Codec ID : 55
Codec ID/Hint : MP3
Duration : 10mn 24s
Bit rate mode : Constant
Bit rate : 128 Kbps
Channel(s) : 2 channels
Sampling rate : 44.1 KHz
Compression mode : Lossy
Stream size : 9.53 MiB (6%)
Alignment : Split accross interleaves
Interleave, duration : 40 ms (1.00 video frame)
Interleave, preload duration : 500 ms
 
Не забывайте говорить Спасибо. Не уходите с раздачи!   
Торрент: Зарегистрирован [16 май 2018, 14:55] Скачать торрент
Скачать торрент
[ Размер 12.91 КБ / Просмотров 13 ]
Статус:
Проверен
 
.torrent скачан: 0 раз
Хэш: 42ec6196bb1f6c4e1aa1ec2543a096078f4f7c44
Размер: 158.2 МБ (165 883 904 байт)
Стать Автором раздачи
 
 
Раздал: 0 байт
Скачал: 0 байт
Ратио: Inf.
Сообщения: 487468
Зарегистрирован: 17 апр 2014, 13:57


  • Похожие торренты
    Ответы
    Просмотры
    Последнее сообщение

Вернуться в Анимация (Арт-хаус и авторское кино)

Ресурс не предоставляет электронные версии произведений, а занимается лишь коллекционированием и каталогизацией ссылок, присылаемых и публикуемых на форуме нашими читателями. Если вы являетесь правообладателем какого-либо представленного материала и не желаете чтобы ссылка на него находилась в нашем каталоге, свяжитесь с нами и мы незамедлительно удалим её. Файлы для обмена на трекере предоставлены пользователями сайта, и администрация не несёт ответственности за их содержание. Просьба не заливать файлы, защищенные авторскими правами, а также файлы нелегального содержания!
cron