Сид и Нэнси / Sid and Nancy (1986) BDRemux [H.264/1080p] Criterion Collection

 
 Статистика раздачи 
Размер: 35.1 ГБ   |  Зарегистрирован: 16 май 2018, 13:57   |   .torrent скачан: 0 раз
Сидеров: 1  [ 0 байт/сек ]     Личеров: 0  [ 0 байт/сек ]  
  

Сид и Нэнси / Sid and Nancy (1986) BDRemux [H.264/1080p] Criterion Collection

Сообщение explosiveone » 16 май 2018, 13:57

Сид и Нэнси / Sid and Nancy (1986) BDRemux [H.264/1080p]
Criterion Collection

Производство: Великобритания, Initial Pictures, U.K. Productions Entity, Zenith Entertainment
Жанр: Драма, Мелодрама, Биография, Музыка

Режиссер: Алекс Кокс
Актеры: Гари Олдман, Ксандер Беркли, Дэвид Хэйман, Джон Снайдер, Хлоя Уэбб, Дебби Бишоп, Эндрю Скофилд, Тони Лондон, Сэнди Бэрон, Сай Ричардсон

Описание:
Эпическая драма о жизни и смерти Сида Вишеса, фильм о сумасшедшем времени — 70-х, о рок музыке, о становлении и распаде легендарной группы Sex Pistols, о любви, о поисках свободы и разочарованиях…

http://www.imdb.com/title/tt0091954/?ref_=plg_rt_1
Возраст: 18+ (зрителям, достигшим 18 лет. запрещено для детей)
Рейтинг MPAA: R (лицам до 17 лет обязательно присутствие взрослого)

Релиз от: NNMClub

Продолжительность: 01:53:33
Качество видео: BDRemux
Перевод: Двухголосый закадровый, авторский одноголосый, любительский одноголосый
Субтитры: русские (R5 и by Dezz), английские (SDH)

Видео: AVC/H.264, 1920х1080, ~32.2 Mb/s
Аудио 1: DTS-HD MA, 6 ch, 3729 kbps - Русский, двухголосый (CP-Digital)
Аудио 2: DTS-HD MA, 6 ch, 3708 kbps - Русский, одноголосый (Д. Пучков)
Аудио 3: AC3 2.0, 192 kbps - Русский, одноголосый (С. Кузнецов)
Аудио 4: AC3 2.0, 192 kbps - Русский, одноголосый (неизвестный)
Аудио 5: AC3 2.0, 224 kbps - Украинский, двухголосый (1+1)
Аудио 6: DTS-HD MA, 6 ch, 3689 kbps - Английский
Аудио 7: AC3 2.0, 192 kbps - commentaries featuring cowriter Abbe Wool, actors Gary Oldman and Chloe Webb, cultural historian Greil Marcus, filmmakers Julien Temple and Lech Kowalski, musician Eliot Kidd
Аудио 8: AC3 2.0, 192 kbps - commentaries featuring cowriter-director Alex Cox and actor Andrew Schofield

Cубтитры от Dezz и перевод Пучкова содержат ненормативную лексику.

Сравнение изданий
Код: Выделить всё
Complete name               : Sid.and.Nancy.1986.Criterion Collection.BDRemux.mkv
Format                      : Matroska
Format version              : Version 4 / Version 2
File size                   : 35.1 GiB
Duration                    : 1 h 53 min
Overall bit rate mode       : Variable
Overall bit rate            : 44.3 Mb/s
Movie name                  : Sid and Nancy.1986.Criterion Collection.BDRemux <<Atomsk>>
Encoded date                : UTC 2018-05-16 06:19:56
Writing application         : mkvmerge v8.3.0 ('Over the Horizon') 64bit
Writing library             : libebml v1.3.1 + libmatroska v1.4.2

Video
ID                          : 1
Format                      : AVC
Format/Info                 : Advanced Video Codec
Format profile              : [url=http://nnmclub.to/mailto:High@L4.1]High@L4.1[/url]
Format settings             : CABAC / 4 Ref Frames
Format settings, CABAC      : Yes
Format settings, ReFrames   : 4 frames
Codec ID                    : V_MPEG4/ISO/AVC
Duration                    : 1 h 53 min
Bit rate mode               : Variable
Bit rate                    : 32.1 Mb/s
Maximum bit rate            : 37.0 Mb/s
Width                       : 1 920 pixels
Height                      : 1 080 pixels
Display aspect ratio        : 16:9
Frame rate mode             : Constant
Frame rate                  : 23.976 (24000/1001) FPS
Color space                 : YUV
Chroma subsampling          : 4:2:0
Bit depth                   : 8 bits
Scan type                   : Progressive
Bits/(Pixel*Frame)          : 0.646
Stream size                 : 25.5 GiB (73%)
Title                       : Sid and Nancy.1986.Criterion Collection.BDRemux
Language                    : English
Default                     : Yes
Forced                      : No

Audio #1
ID                          : 2
Format                      : DTS
Format/Info                 : Digital Theater Systems
Format profile              : MA / Core
Codec ID                    : A_DTS
Duration                    : 1 h 53 min
Bit rate mode               : Variable / Constant
Bit rate                    : 3 729 kb/s / 1 509 kb/s
Channel(s)                  : 6 channels
Channel positions           : Front: L C R, Side: L R, LFE
Sampling rate               : 48.0 kHz
Frame rate                  : 93.750 FPS (512 SPF)
Bit depth                   : 24 bits
Compression mode            : Lossless / Lossy
Stream size                 : 2.96 GiB (8%)
Title                       : DTS-HD MA 5.1 @ 3729 kbps - DVO, CP-Digital
Language                    : Russian
Default                     : Yes
Forced                      : No

Audio #2
ID                          : 3
Format                      : DTS
Format/Info                 : Digital Theater Systems
Format profile              : MA / Core
Codec ID                    : A_DTS
Duration                    : 1 h 53 min
Bit rate mode               : Variable / Constant
Bit rate                    : 3 708 kb/s / 1 509 kb/s
Channel(s)                  : 6 channels
Channel positions           : Front: L C R, Side: L R, LFE
Sampling rate               : 48.0 kHz
Frame rate                  : 93.750 FPS (512 SPF)
Bit depth                   : 24 bits
Compression mode            : Lossless / Lossy
Stream size                 : 2.94 GiB (8%)
Title                       : DTS-HD MA 5.1 @ 3708 kbps - AVO, Д. Пучков (ненорматив)
Language                    : Russian
Default                     : No
Forced                      : No

Audio #3
ID                          : 4
Format                      : AC-3
Format/Info                 : Audio Coding 3
Codec ID                    : A_AC3
Duration                    : 1 h 53 min
Bit rate mode               : Constant
Bit rate                    : 192 kb/s
Channel(s)                  : 2 channels
Channel positions           : Front: L R
Sampling rate               : 48.0 kHz
Frame rate                  : 31.250 FPS (1536 SPF)
Bit depth                   : 16 bits
Compression mode            : Lossy
Stream size                 : 156 MiB (0%)
Title                       : AC3 2.0 @ 192 kbps - AVO, С. Кузнецов
Language                    : Russian
Service kind                : Complete Main
Default                     : No
Forced                      : No

Audio #4
ID                          : 5
Format                      : AC-3
Format/Info                 : Audio Coding 3
Codec ID                    : A_AC3
Duration                    : 1 h 53 min
Bit rate mode               : Constant
Bit rate                    : 192 kb/s
Channel(s)                  : 2 channels
Channel positions           : Front: L R
Sampling rate               : 48.0 kHz
Frame rate                  : 31.250 FPS (1536 SPF)
Bit depth                   : 16 bits
Compression mode            : Lossy
Stream size                 : 156 MiB (0%)
Title                       : AC3 2.0 @ 192 kbps - VO, неизвестный боец
Language                    : Russian
Service kind                : Complete Main
Default                     : No
Forced                      : No

Audio #5
ID                          : 6
Format                      : AC-3
Format/Info                 : Audio Coding 3
Codec ID                    : A_AC3
Duration                    : 1 h 53 min
Bit rate mode               : Constant
Bit rate                    : 224 kb/s
Channel(s)                  : 2 channels
Channel positions           : Front: L R
Sampling rate               : 48.0 kHz
Frame rate                  : 31.250 FPS (1536 SPF)
Bit depth                   : 16 bits
Compression mode            : Lossy
Stream size                 : 182 MiB (1%)
Title                       : AC3 2.0 @ 224 kbps - DVO, 1+1
Language                    : Ukrainian
Service kind                : Complete Main
Default                     : No
Forced                      : No

Audio #6
ID                          : 7
Format                      : DTS
Format/Info                 : Digital Theater Systems
Format profile              : MA / Core
Codec ID                    : A_DTS
Duration                    : 1 h 53 min
Bit rate mode               : Variable / Constant
Bit rate                    : 3 689 kb/s / 1 509 kb/s
Channel(s)                  : 6 channels
Channel positions           : Front: L C R, Side: L R, LFE
Sampling rate               : 48.0 kHz
Frame rate                  : 93.750 FPS (512 SPF)
Bit depth                   : 24 bits
Compression mode            : Lossless / Lossy
Stream size                 : 2.93 GiB (8%)
Title                       : DTS-HD MA 5.1 @ 3689 kbps - Original
Language                    : English
Default                     : No
Forced                      : No

Audio #7
ID                          : 8
Format                      : AC-3
Format/Info                 : Audio Coding 3
Codec ID                    : A_AC3
Duration                    : 1 h 53 min
Bit rate mode               : Constant
Bit rate                    : 192 kb/s
Channel(s)                  : 1 channel
Channel positions           : Front: C
Sampling rate               : 48.0 kHz
Frame rate                  : 31.250 FPS (1536 SPF)
Bit depth                   : 16 bits
Compression mode            : Lossy
Stream size                 : 156 MiB (0%)
Title                       : commentaries featuring cowriter Abbe Wool, actors Gary Oldman and Chloe Webb, cultural historian Greil Marcus, filmmakers Julien Temple and Lech Kowalski, musician Eliot Kidd
Language                    : English
Service kind                : Complete Main
Default                     : No
Forced                      : No

Audio #8
ID                          : 9
Format                      : AC-3
Format/Info                 : Audio Coding 3
Codec ID                    : A_AC3
Duration                    : 1 h 53 min
Bit rate mode               : Constant
Bit rate                    : 192 kb/s
Channel(s)                  : 1 channel
Channel positions           : Front: C
Sampling rate               : 48.0 kHz
Frame rate                  : 31.250 FPS (1536 SPF)
Bit depth                   : 16 bits
Compression mode            : Lossy
Stream size                 : 156 MiB (0%)
Title                       : commentaries featuring cowriter-director Alex Cox and actor Andrew Schofield
Language                    : English
Service kind                : Complete Main
Default                     : No
Forced                      : No

Text #1
ID                          : 10
Format                      : UTF-8
Codec ID                    : S_TEXT/UTF8
Codec ID/Info               : UTF-8 Plain Text
Duration                    : 1 h 47 min
Bit rate                    : 73 b/s
Count of elements           : 1123
Stream size                 : 57.6 KiB (0%)
Language                    : Russian
Default                     : No
Forced                      : No

Text #2
ID                          : 11
Format                      : UTF-8
Codec ID                    : S_TEXT/UTF8
Codec ID/Info               : UTF-8 Plain Text
Duration                    : 1 h 47 min
Bit rate                    : 83 b/s
Count of elements           : 1214
Stream size                 : 65.8 KiB (0%)
Title                       : Dezz (ненорматив)
Language                    : Russian
Default                     : No
Forced                      : No

Text #3
ID                          : 12
Format                      : UTF-8
Codec ID                    : S_TEXT/UTF8
Codec ID/Info               : UTF-8 Plain Text
Duration                    : 1 h 53 min
Bit rate                    : 64 b/s
Count of elements           : 1587
Stream size                 : 53.7 KiB (0%)
Title                       : SDH
Language                    : English
Default                     : No
Forced                      : No

Menu
00:00:00.000                : en:00:00:00.000
00:04:23.013                : en:00:04:23.013
00:07:08.803                : en:00:07:08.803
00:10:16.032                : en:00:10:16.032
00:16:21.355                : en:00:16:21.355
00:22:10.996                : en:00:22:10.996
00:25:29.737                : en:00:25:29.737
00:29:26.014                : en:00:29:26.014
00:33:14.910                : en:00:33:14.910
00:35:53.485                : en:00:35:53.485
00:41:50.967                : en:00:41:50.967
00:45:50.414                : en:00:45:50.414
00:49:49.236                : en:00:49:49.236
00:56:15.247                : en:00:56:15.247
01:01:44.618                : en:01:01:44.618
01:04:59.354                : en:01:04:59.354
01:08:38.448                : en:01:08:38.448
01:14:06.859                : en:01:14:06.859
01:18:21.989                : en:01:18:21.989
01:21:19.833                : en:01:21:19.833
01:26:58.255                : en:01:26:58.255
01:30:09.654                : en:01:30:09.654
01:35:27.138                : en:01:35:27.138
01:42:27.516                : en:01:42:27.516

Скриншоты:





Время раздачи: 24/7 (круглосуточно) (до появления первых 3-5 скачавших)
 
Не забывайте говорить Спасибо. Не уходите с раздачи!   
Торрент: Зарегистрирован [16 май 2018, 13:57] Скачать торрент
Скачать торрент
[ Размер 176.33 КБ / Просмотров 8 ]
Статус:
Проверен
 
.torrent скачан: 0 раз
Хэш: 222e9210efbef131f1f966be0fadd0f14131bee3
Размер: 35.1 ГБ (37 685 896 953 байт)
Стать Автором раздачи
 
 
Раздал: 100 ГБ
Скачал: 0 байт
Ратио: Seed.
Сообщения: 112056
Зарегистрирован: 09 апр 2015, 22:31


  • Похожие торренты
    Ответы
    Просмотры
    Последнее сообщение

Вернуться в Авторское кино

Ресурс не предоставляет электронные версии произведений, а занимается лишь коллекционированием и каталогизацией ссылок, присылаемых и публикуемых на форуме нашими читателями. Если вы являетесь правообладателем какого-либо представленного материала и не желаете чтобы ссылка на него находилась в нашем каталоге, свяжитесь с нами и мы незамедлительно удалим её. Файлы для обмена на трекере предоставлены пользователями сайта, и администрация не несёт ответственности за их содержание. Просьба не заливать файлы, защищенные авторскими правами, а также файлы нелегального содержания!