Балто / Balto (1995) BDRip-AVC от ExKinoRay | D, P

 
 Статистика раздачи 
Размер: 745.84 МБ   |  Зарегистрирован: 15 май 2018, 18:58   |   .torrent скачан: 0 раз
Сидеров: 1  [ 0 байт/сек ]     Личеров: 0  [ 0 байт/сек ]  
  

Балто / Balto (1995) BDRip-AVC от ExKinoRay | D, P

Сообщение graf_t » 15 май 2018, 18:58

Информация о фильме:
Название: Балто
Оригинальное название: Balto
Год выхода: 1995
Жанр: Мультфильм, драма, приключения, семейный, история
Режиссер: Саймон Уэллс
В ролях: Кевин Бейкон, Боб Хоскинс, Бриджит Фонда, Джим Каммингс, Фил Коллинз, Джек Эйнджел, Дэнни Манн, Робби Рист, Джульетт Брюэр, Сандра Дикинсон

О фильме :
Наполовину лайка, наполовину волк, Балто и сам не знает кто он такой на самом деле. Всеми гонимый бродяга в ледяной пустыне Аляски. Только его друзья русский полярный гусь Борис, медвежата Мак и Лак и красавица-лайка Дженна уверены, что хотя он и не такой как все, но в его груди бьется благородное сердце. Однажды случается несчастье. Эпидемия дифтерии охватила детей небольшого поселка, а свирепая вьюга сделала непроходимыми все дороги. Лишь собачья упряжка может преодолеть шестьсот миль через ослепляющий арктический шторм и привезти спасительное лекарство. Но собаки сбились с дороги где-то на замерзших просторах. Теперь только Балто может найти упряжку и спасти детей, а заодно стать героем и настоящей легендой!



Выпущено: США, Amblin Entertainment, Universal Pictures, Universal Cartoon Studios
Продолжительность: 01:17:37
Перевод 1: Профессиональный (дублированный) - ОРТ
Перевод 2: Профессиональный (многоголосый закадровый) - СТС

Файл
Формат: MKV
Качество: BDRip-AVC (BDRemux 1080p)
Видео: MPEG-4 AVC, 768x416, ~ 1190 Кбит/с
Аудио 1: AAC-HE, 2 ch, ~ 76 Кбит/с | Dub, ОРТ
Аудио 2: AAC-HE, 2 ch, ~ 76 Кбит/с | MVO, СТС
Субтитры: Русские (полные, SDH), английские (SDH)

Общее
Уникальный идентификатор : 199112057302939013213771871384171551993 (0x95CB965C3B0AA3F3BDD679E541299CF9)
Полное имя : D:MOVIESBalto.1995.ExKinoRay.mkv
Формат : Matroska
Версия формата : Version 4 / Version 2
Размер файла : 746 Мбайт
Продолжительность : 1 ч. 17 м.
Общий поток : 1343 Кбит/сек
Дата кодирования : UTC 2018-05-15 14:39:26
Программа кодирования : mkvmerge v15.0.0 ('Duel with the Devil') 64-bit
Библиотека кодирования : libebml v1.3.5 + libmatroska v1.4.5

Видео
Идентификатор : 1
Формат : AVC
Формат/Информация : Advanced Video Codec
Профиль формата : High@L4.1
Параметр CABAC формата : Да
Параметр RefFrames формата : 10 кадров
Идентификатор кодека : V_MPEG4/ISO/AVC
Продолжительность : 1 ч. 17 м.
Битрейт : 1190 Кбит/сек
Ширина : 768 пикселей
Высота : 416 пикселей
Соотношение сторон : 1,85:1
Режим частоты кадров : Постоянный
Частота кадров : 23,976 (24000/1001) кадра/сек
Цветовое пространство : YUV
Субдискретизация насыщенности : 4:2:0
Битовая глубина : 8 бит
Тип развёртки : Прогрессивная
Бит/(Пиксели*Кадры) : 0.155
Размер потока : 660 Мбайт (88%)
Библиотека кодирования : x264 core 155 r2901 7d0ff22
Настройки программы : cabac=1 / ref=10 / deblock=1:-2:-2 / analyse=0x3:0x133 / me=umh / subme=11 / psy=1 / psy_rd=1.00:0.10 / mixed_ref=1 / me_range=32 / chroma_me=1 / trellis=2 / 8x8dct=1 / cqm=0 / deadzone=21,11 / fast_pskip=0 / chroma_qp_offset=-3 / threads=6 / lookahead_threads=1 / sliced_threads=0 / nr=0 / decimate=0 / interlaced=0 / bluray_compat=0 / constrained_intra=0 / bframes=10 / b_pyramid=2 / b_adapt=2 / b_bias=0 / direct=3 / weightb=1 / open_gop=0 / weightp=2 / keyint=240 / keyint_min=23 / scenecut=40 / intra_refresh=0 / rc_lookahead=40 / rc=2pass / mbtree=1 / bitrate=1190 / ratetol=1.0 / qcomp=0.60 / qpmin=0 / qpmax=69 / qpstep=4 / cplxblur=20.0 / qblur=0.5 / vbv_maxrate=50000 / vbv_bufsize=62500 / nal_hrd=none / filler=0 / ip_ratio=1.40 / aq=3:1.00
Default : Да
Forced : Нет

Аудио #1
Идентификатор : 2
Формат : AAC
Формат/Информация : Advanced Audio Codec
Профиль формата : HE-AAC / LC
Идентификатор кодека : A_AAC
Продолжительность : 1 ч. 17 м.
Битрейт : 76,0 Кбит/сек
Каналы : 2 канала
Расположение каналов : Front: L R
Частота : 48,0 КГц / 24,0 КГц
Частота кадров : 23,438 кадра/сек (1024 SPF)
Метод сжатия : С потерями
Задержка видео : 31 мс.
Размер потока : 42,2 Мбайт (6%)
Заголовок : Dub
Язык : Russian
Default : Да
Forced : Нет

Аудио #2
Идентификатор : 3
Формат : AAC
Формат/Информация : Advanced Audio Codec
Профиль формата : HE-AAC / LC
Идентификатор кодека : A_AAC
Продолжительность : 1 ч. 17 м.
Битрейт : 76,0 Кбит/сек
Каналы : 2 канала
Расположение каналов : Front: L R
Частота : 48,0 КГц / 24,0 КГц
Частота кадров : 23,438 кадра/сек (1024 SPF)
Метод сжатия : С потерями
Задержка видео : 31 мс.
Размер потока : 42,2 Мбайт (6%)
Заголовок : MVO
Язык : Russian
Default : Нет
Forced : Нет

Текст #1
Идентификатор : 4
Формат : UTF-8
Идентификатор кодека : S_TEXT/UTF8
Идентификатор кодека/Информация : UTF-8 Plain Text
Продолжительность : 1 ч. 11 м.
Битрейт : 65 бит/сек
ElementCount : 559
Размер потока : 34,3 Кбайт (0%)
Язык : Russian
Default : Нет
Forced : Нет

Текст #2
Идентификатор : 5
Формат : UTF-8
Идентификатор кодека : S_TEXT/UTF8
Идентификатор кодека/Информация : UTF-8 Plain Text
Продолжительность : 1 ч. 10 м.
Битрейт : 80 бит/сек
ElementCount : 788
Размер потока : 41,7 Кбайт (0%)
Заголовок : SDH
Язык : Russian
Default : Нет
Forced : Нет

Текст #3
Идентификатор : 6
Формат : UTF-8
Идентификатор кодека : S_TEXT/UTF8
Идентификатор кодека/Информация : UTF-8 Plain Text
Продолжительность : 1 ч. 11 м.
Битрейт : 59 бит/сек
ElementCount : 1273
Размер потока : 31,0 Кбайт (0%)
Заголовок : SDH
Язык : English
Default : Нет
Forced : Нет



Релиз от:
 
Не забывайте говорить Спасибо. Не уходите с раздачи!   
Торрент: Зарегистрирован [15 май 2018, 18:58] Скачать торрент
Скачать торрент
[ Размер 15.5 КБ / Просмотров 5 ]
Статус:
Проверен
 
.torrent скачан: 0 раз
Хэш: 01c62e872b432d1936104a8f568dfd45d4fc9bd8
Размер: 745.84 МБ (782 069 096 байт)
Стать Автором раздачи
 
 
Раздал: 100 ГБ
Скачал: 0 байт
Ратио: Seed.
Сообщения: 57437
Зарегистрирован: 31 мар 2015, 18:04


  • Похожие торренты
    Ответы
    Просмотры
    Последнее сообщение

Вернуться в Мультфильмы и мультсериалы

Ресурс не предоставляет электронные версии произведений, а занимается лишь коллекционированием и каталогизацией ссылок, присылаемых и публикуемых на форуме нашими читателями. Если вы являетесь правообладателем какого-либо представленного материала и не желаете чтобы ссылка на него находилась в нашем каталоге, свяжитесь с нами и мы незамедлительно удалим её. Файлы для обмена на трекере предоставлены пользователями сайта, и администрация не несёт ответственности за их содержание. Просьба не заливать файлы, защищенные авторскими правами, а также файлы нелегального содержания!
cron