Мальчики-девочки (2008) WEBRip [H.264/1080p-LQ]

 
 Статистика раздачи 
Размер: 2.71 ГБ   |  Зарегистрирован: 15 май 2018, 14:11   |   .torrent скачан: 0 раз
Сидеров: 1  [ 0 байт/сек ]     Личеров: 0  [ 0 байт/сек ]  
  

Мальчики-девочки (2008) WEBRip [H.264/1080p-LQ]

Сообщение explosiveone » 15 май 2018, 14:11

Мальчики-девочки (2008) WEBRip [H.264/1080p-LQ]

Производство: Россия / 5-й канал Петербург
Жанр: Драма

Режиссер: Михаил Баркан
Актеры: Станислав Задерей, Анастасия Микульчина, Владимир Богданов, Виктор Вержбицкий, Аркадий Коваль, Дмитрий Рудков, Нина Русланова, Александр Демич, Сергей Кочевых, Алексей Макрецкий

Описание:
Их брак был заключен по любви, они молоды и… несчастливы. Дмитрий Голышев любит дружеские посиделки в кругу творческих людей, а его жена Вера грезит только о материальном достатке. Найти «спонсора» для нее лишь дело времени. Тем более, что Юрий Максимович Кулыгин, хозяин крупной компании, хотя и не молод, но очень богат. Он искренне любит Веру и готов воплотить ее мечты в жизнь. Развод для Димы и Веры неизбежен...


Возраст: 16+ (зрителям, достигшим 16 лет)

Релиз от: Aлexandr
Продолжительность: 01:35:50
Качество видео: WEBRip
Субтитры: Отсутствуют

Видео: AVC/H.264, 1920x1080 (16:9), ~3775 Kbps
Аудио: AC3, 2 ch, 192 Kbps
Код: Выделить всё
Общее
Уникальный идентификатор                 : 210176373172877776796630472399211914380 (0x9E1E7F3FF4A2C5AD9FAEA50180A6E48C)
Полное имя                               : D:\Мальчики-девочки (2008).by.Алехаndr.mkv
Формат                                   : Matroska
Версия формата                           : Version 4 / Version 2
Размер файла                             : 2,71 Гбайт
Продолжительность                        : 1 ч. 35 м.
Общий поток                              : 4049 Кбит/сек
Программа кодирования                    : Lavf57.71.100
Библиотека кодирования                   : Lavf57.71.100
ErrorDetectionType                       : Per level 1

Видео
Идентификатор                            : 1
Формат                                   : AVC
Формат/Информация                        : Advanced Video Codec
Профиль формата                          : High@L4
Настройки формата                        : CABAC / 2 Ref Frames
Параметр CABAC формата                   : Да
Параметр RefFrames формата               : 2 кадра
Идентификатор кодека                     : V_MPEG4/ISO/AVC
Продолжительность                        : 1 ч. 35 м.
Битрейт                                  : 3776 Кбит/сек
Ширина                                   : 1920 пикселей
Высота                                   : 1080 пикселей
Соотношение сторон                       : 16:9
Режим частоты кадров                     : Постоянный
Частота кадров                           : 25,000 кадров/сек
Цветовое пространство                    : YUV
Субдискретизация насыщенности            : 4:2:0
Битовая глубина                          : 8 бит
Тип развёртки                            : Прогрессивная
Бит/(Пиксели*Кадры)                      : 0.073
Размер потока                            : 2,53 Гбайт (93%)
Default                                  : Да
Forced                                   : Нет
Цветовой диапазон                        : Limited
Основные цвета                           : BT.709
Характеристики трансфера                 : BT.709
Коэффициенты матрицы                     : BT.709

Аудио
Идентификатор                            : 2
Формат                                   : AC-3
Формат/Информация                        : Audio Coding 3
Идентификатор кодека                     : A_AC3
Продолжительность                        : 1 ч. 35 м.
Вид битрейта                             : Постоянный
Битрейт                                  : 192 Кбит/сек
Каналы                                   : 2 канала
Расположение каналов                     : Front: L R
Частота                                  : 48,0 КГц
Частота кадров                           : 31,250 кадров/сек (1536 SPF)
Битовая глубина                          : 16 бит
Метод сжатия                             : С потерями
Размер потока                            : 132 Мбайт (5%)
ServiceKind/String                       : Complete Main
Default                                  : Да
Forced                                   : Нет

Скриншоты:




Время раздачи: 24/7 (круглосуточно) (до появления первых 3-5 скачавших)
 
Не забывайте говорить Спасибо. Не уходите с раздачи!   
Торрент: Зарегистрирован [15 май 2018, 14:11] Скачать торрент
Скачать торрент
[ Размер 14.36 КБ / Просмотров 5 ]
Статус:
Проверен
 
.torrent скачан: 0 раз
Хэш: ef2b1c57874a6402fb5e633abfb288960b5287ee
Размер: 2.71 ГБ (2 910 237 571 байт)
Стать Автором раздачи
 
 
Раздал: 100 ГБ
Скачал: 0 байт
Ратио: Seed.
Сообщения: 102801
Зарегистрирован: 09 апр 2015, 22:31


  • Похожие торренты
    Ответы
    Просмотры
    Последнее сообщение

Вернуться в Отечественные фильмы 2006-2010 года

Ресурс не предоставляет электронные версии произведений, а занимается лишь коллекционированием и каталогизацией ссылок, присылаемых и публикуемых на форуме нашими читателями. Если вы являетесь правообладателем какого-либо представленного материала и не желаете чтобы ссылка на него находилась в нашем каталоге, свяжитесь с нами и мы незамедлительно удалим её. Файлы для обмена на трекере предоставлены пользователями сайта, и администрация не несёт ответственности за их содержание. Просьба не заливать файлы, защищенные авторскими правами, а также файлы нелегального содержания!