VA - Depth Charge - Electro Boogie - Shape Generator (1999) Studio !K7 [FLAC|Lossless|tracks+.cue] <Electro, Breakbeat>

 
 Статистика раздачи 
Размер: 492.75 МБ   |  Зарегистрирован: 15 май 2018, 03:01   |   .torrent скачан: 0 раз
Сидеров: 1  [ 0 байт/сек ]     Личеров: 0  [ 0 байт/сек ]  
  

VA - Depth Charge - Electro Boogie - Shape Generator (1999) Studio !K7 [FLAC|Lossless|tracks+.cue] <Electro, Breakbeat>

Сообщение explosiveone » 15 май 2018, 03:01

Depth Charge
Electro Boogie - Shape Generator
Жанр: Electro, Breakbeat
Издание: Studio !K7 - !K7075CD
Продолжительность: 01:08:10

Кодек: FLAC
Битрейт: Lossless
Тип рипа: tracks+.cue

Треклист:

01. Human - Evil Knevil (02:47)
02. Echo Park - Needled (06:00)
03. Sawtooth - White Water D-Mixed (04:04)
04. Little Computer People - Little Computer People (04:47)
05. Third Electric - 1.9.8.3. (03:07)
06. Third Electric - Schwebebahn (04:19)
07. Anthony Rother - Destroy Him My Robots (05:31)
08. Dynamo - Aufenthalt 1 (05:13)
09. The Octagon Man - Vidd (05:29)
10. Anthony Rother - Past Represents The Future (00:36)
11. Scorn - The End (02:50)
12. Soft Cell - Tainted Love (Original 12") (05:10)
13. Suburban Hell - Haze(L) (02:57)
14. Sem - Area 5 (05:10)
15. The Octagon Man - Free-er Than Free (10:10)
Код: Выделить всё
Exact Audio Copy V0.99 prebeta 4 from 23. January 2008

EAC extraction logfile from 14. September 2008, 0:54

Depth Charge / Depth Charge presents Electro Boogie - Shape Generator

Used drive  : LITE-ON DVDRW LH-20A1S   Adapter: 3  ID: 0

Read mode               : Secure
Utilize accurate stream : Yes
Defeat audio cache      : Yes
Make use of C2 pointers : No

Read offset correction                      : 6
Overread into Lead-In and Lead-Out          : No
Fill up missing offset samples with silence : Yes
Delete leading and trailing silent blocks   : No
Null samples used in CRC calculations       : Yes
Used interface                              : Native Win32 interface for Win NT & 2000
Gap handling                                : Appended to previous track

Used output format              : User Defined Encoder
Selected bitrate                : 1024 kBit/s
Quality                         : High
Add ID3 tag                     : No
Command line compressor         : C:\Program Files\Exact Audio Copy\FLAC\FLAC.EXE
Additional command line options : -V -8 -T "artist=%a" -T "title=%t" -T "album=%g" -T "date=%y" -T "tracknumber=%n" -T "genre=%m" %s

TOC of the extracted CD

     Track |   Start  |  Length  | Start sector | End sector
    ---------------------------------------------------------
        1  |  0:00.00 |  2:47.19 |         0    |    12543
        2  |  2:47.19 |  6:00.28 |     12544    |    39571
        3  |  8:47.47 |  4:03.69 |     39572    |    57865
        4  | 12:51.41 |  4:46.74 |     57866    |    79389
        5  | 17:38.40 |  3:07.15 |     79390    |    93429
        6  | 20:45.55 |  4:19.24 |     93430    |   112878
        7  | 25:05.04 |  5:31.06 |    112879    |   137709
        8  | 30:36.10 |  5:12.42 |    137710    |   161151
        9  | 35:48.52 |  5:29.13 |    161152    |   185839
       10  | 41:17.65 |  0:36.35 |    185840    |   188574
       11  | 41:54.25 |  2:50.00 |    188575    |   201324
       12  | 44:44.25 |  5:10.08 |    201325    |   224582
       13  | 49:54.33 |  2:57.19 |    224583    |   237876
       14  | 52:51.52 |  5:10.31 |    237877    |   261157
       15  | 58:02.08 | 10:09.70 |    261158    |   306902

Track  1

     Filename 01 Human , Evil Knevil.wav

     Pre-gap length  0:00:02.00

     Peak level 99.7 %
     Track quality 100.0 %
     Test CRC 10500073
     Copy CRC 10500073
     Accurately ripped (confidence 5)  [A18ECB8D]
     Copy OK

Track  2

     Filename 02 Echo Park , Needled.wav

     Peak level 99.4 %
     Track quality 100.0 %
     Test CRC 147E0F69
     Copy CRC 147E0F69
     Accurately ripped (confidence 6)  [719CCE41]
     Copy OK

Track  3

     Filename 03 Saw Tooth , White Water - D.Mixed.wav

     Peak level 99.4 %
     Track quality 100.0 %
     Test CRC 74F6B871
     Copy CRC 74F6B871
     Accurately ripped (confidence 6)  [465747B4]
     Copy OK

Track  4

     Filename 04 The Little Computer People Project , Little Computer People.wav

     Peak level 99.4 %
     Track quality 100.0 %
     Test CRC C0B8E66F
     Copy CRC C0B8E66F
     Accurately ripped (confidence 6)  [273B1F1E]
     Copy OK

Track  5

     Filename 05 Third Electric , 1.9.8.3..wav

     Peak level 99.4 %
     Track quality 100.0 %
     Test CRC 3F3B1C49
     Copy CRC 3F3B1C49
     Accurately ripped (confidence 5)  [004C1127]
     Copy OK

Track  6

     Filename 06 Third Electric , Schwebebahn.wav

     Peak level 99.4 %
     Track quality 99.9 %
     Test CRC 3CA40273
     Copy CRC 3CA40273
     Accurately ripped (confidence 6)  [47E03FED]
     Copy OK

Track  7

     Filename 07 Anthony Rother , Destroy Him My Robots.wav

     Peak level 99.4 %
     Track quality 99.9 %
     Test CRC A03DE1B9
     Copy CRC A03DE1B9
     Accurately ripped (confidence 5)  [38B2075E]
     Copy OK

Track  8

     Filename 08 Dynamo , Aufenthalt.wav

     Peak level 99.4 %
     Track quality 100.0 %
     Test CRC BFEFB9CA
     Copy CRC BFEFB9CA
     Accurately ripped (confidence 5)  [73F1F7CC]
     Copy OK

Track  9

     Filename 09 Octagon Man , Vidd.wav

     Peak level 99.4 %
     Track quality 100.0 %
     Test CRC 9A2BC59F
     Copy CRC 9A2BC59F
     Accurately ripped (confidence 4)  [BC288B54]
     Copy OK

Track 10

     Filename 10 Anthony Rother , Past Represents The Future.wav

     Peak level 99.4 %
     Track quality 100.0 %
     Test CRC AF0BC7B0
     Copy CRC AF0BC7B0
     Accurately ripped (confidence 5)  [BDD8012A]
     Copy OK

Track 11

     Filename 11 Scorn , The End.wav

     Peak level 99.4 %
     Track quality 99.9 %
     Test CRC 6D3BE361
     Copy CRC 6D3BE361
     Accurately ripped (confidence 6)  [63CBE421]
     Copy OK

Track 12

     Filename 12 Soft Cell , Tainted Love (Original 12').wav

     Peak level 99.4 %
     Track quality 100.0 %
     Test CRC 0EA1D55F
     Copy CRC 0EA1D55F
     Accurately ripped (confidence 5)  [E9CA8ED1]
     Copy OK

Track 13

     Filename 13 Suburban Hell , Haze(L).wav

     Peak level 99.4 %
     Track quality 100.0 %
     Test CRC F263621B
     Copy CRC F263621B
     Accurately ripped (confidence 6)  [BB9642C6]
     Copy OK

Track 14

     Filename 14 Sem , Area 5.wav

     Peak level 99.4 %
     Track quality 100.0 %
     Test CRC DAA88E34
     Copy CRC DAA88E34
     Accurately ripped (confidence 6)  [76818645]
     Copy OK

Track 15

     Filename 15 Octagon Man , Free-er Than Free.wav

     Peak level 99.4 %
     Track quality 100.0 %
     Test CRC DEC69948
     Copy CRC DEC69948
     Accurately ripped (confidence 5)  [78D8C25A]
     Copy OK

All tracks accurately ripped

No errors occurred

End of status report
Код: Выделить всё
REM GENRE Electro
REM DATE 1999
REM DISCID E60FFC0F
REM COMMENT "ExactAudioCopy v0.99pb4"
PERFORMER "Depth Charge"
TITLE "Electro Boogie - Shape Generator"
FILE "01. Human - Evil Knevil.wav" WAVE
  TRACK 1 AUDIO
    TITLE "Evil Knevil"
    PERFORMER Human
    INDEX 01 00:00:00
FILE "02. Echo Park - Needled.wav" WAVE
  TRACK 2 AUDIO
    TITLE Needled
    PERFORMER "Echo Park"
    INDEX 01 00:00:00
FILE "03. Sawtooth - White Water D-Mixed.wav" WAVE
  TRACK 3 AUDIO
    TITLE "White Water D-Mixed"
    PERFORMER Sawtooth
    INDEX 01 00:00:00
FILE "04. Little Computer People - Little Computer People.wav" WAVE
  TRACK 4 AUDIO
    TITLE "Little Computer People"
    PERFORMER "Little Computer People"
    INDEX 01 00:00:00
FILE "05. Third Electric - 1.9.8.3..wav" WAVE
  TRACK 5 AUDIO
    TITLE 1.9.8.3.
    PERFORMER "Third Electric"
    INDEX 01 00:00:00
FILE "06. Third Electric - Schwebebahn.wav" WAVE
  TRACK 6 AUDIO
    TITLE Schwebebahn
    PERFORMER "Third Electric"
    INDEX 01 00:00:00
FILE "07. Anthony Rother - Destroy Him My Robots.wav" WAVE
  TRACK 7 AUDIO
    TITLE "Destroy Him My Robots"
    PERFORMER "Anthony Rother"
    INDEX 01 00:00:00
FILE "08. Dynamo - Aufenthalt 1.wav" WAVE
  TRACK 8 AUDIO
    TITLE "Aufenthalt 1"
    PERFORMER Dynamo
    INDEX 01 00:00:00
FILE "09. The Octagon Man - Vidd.wav" WAVE
  TRACK 9 AUDIO
    TITLE Vidd
    PERFORMER "The Octagon Man"
    INDEX 01 00:00:00
FILE "10. Anthony Rother - Past Represents The Future.wav" WAVE
  TRACK 10 AUDIO
    TITLE "Past Represents The Future"
    PERFORMER "Anthony Rother"
    INDEX 01 00:00:00
FILE "11. Scorn - The End.wav" WAVE
  TRACK 11 AUDIO
    TITLE "The End"
    PERFORMER Scorn
    INDEX 01 00:00:00
FILE "12. Soft Cell - Tainted Love (Original 12').wav" WAVE
  TRACK 12 AUDIO
    TITLE "Tainted Love (Original 12'')"
    PERFORMER "Soft Cell"
    INDEX 01 00:00:00
FILE "13. Suburban Hell - Haze(L).wav" WAVE
  TRACK 13 AUDIO
    TITLE Haze(L)
    PERFORMER "Suburban Hell"
    INDEX 01 00:00:00
FILE "14. Sem - Area 5.wav" WAVE
  TRACK 14 AUDIO
    TITLE "Area 5"
    PERFORMER Sem
    INDEX 01 00:00:00
FILE "15. The Octagon Man - Free-er Than Free.wav" WAVE
  TRACK 15 AUDIO
    TITLE "Free-Er Than Free"
    PERFORMER "The Octagon Man"
    INDEX 01 00:00:00

Время раздачи: 12/7
 
Не забывайте говорить Спасибо. Не уходите с раздачи!   
Торрент: Зарегистрирован [15 май 2018, 03:01] Скачать торрент
Скачать торрент
[ Размер 21.3 КБ / Просмотров 10 ]
Статус:
Проверен
 
.torrent скачан: 0 раз
Хэш: 88019739e8d2409e54cc81f5c4d858b37684ff46
Размер: 492.75 МБ (516 689 304 байт)
Стать Автором раздачи
 
 
Раздал: 100 ГБ
Скачал: 0 байт
Ратио: Seed.
Сообщения: 111726
Зарегистрирован: 09 апр 2015, 22:31


  • Похожие торренты
    Ответы
    Просмотры
    Последнее сообщение

Вернуться в House, Techno, Electro, Minimal (транзит Lossless)

Ресурс не предоставляет электронные версии произведений, а занимается лишь коллекционированием и каталогизацией ссылок, присылаемых и публикуемых на форуме нашими читателями. Если вы являетесь правообладателем какого-либо представленного материала и не желаете чтобы ссылка на него находилась в нашем каталоге, свяжитесь с нами и мы незамедлительно удалим её. Файлы для обмена на трекере предоставлены пользователями сайта, и администрация не несёт ответственности за их содержание. Просьба не заливать файлы, защищенные авторскими правами, а также файлы нелегального содержания!