Hypnosis - Lost In Space (1992) [FLAC|Lossless|image + .cue] <Italo-Disco, Space-Synth, Synth-pop>

 
 Статистика раздачи 
Размер: 447.07 МБ   |  Зарегистрирован: 14 май 2018, 23:00   |   .torrent скачан: 0 раз
Сидеров: 1  [ 0 байт/сек ]     Личеров: 0  [ 0 байт/сек ]  
  

Hypnosis - Lost In Space (1992) [FLAC|Lossless|image + .cue] <Italo-Disco, Space-Synth, Synth-pop>

Сообщение explosiveone » 14 май 2018, 23:00

Hypnosis - Lost In Space (1992)

Жанр: Italo-Disco, Space-Synth, Synth-pop
Издание: ZYX Music - ZYX 20238-2
Продолжительность: 01:06:24

Кодек: FLAC
Битрейт: Lossless
Тип рипа: image + .cue

Треклист:
01. Lost Memory's (5:57)
02. Space War's (5:54)
03. Planet To Planet (5:10)
04. Lost In Space (6:37)
05. Battle Of Time (6:25)
06. Wave Runner (6:42)
07. Last Fight (7:16)
08. Vocoder Dream (5:08)
09. Lost In Space (Remix) (8:46)
10. Wave Runner (Dub) (8:30)
Итальянский проект "Hypnosis" был организован в 1983 году A. Zanni и S. Cundari (известные по работе с Cyber People, Koto, Duke Lake). Первоначальный состав: Junleib, Misugoromo, Cundari.

Группа выпустила два полных альбома. Первый назывался как и следовало ожидать "Hypnosis" и содержал известные темы электронной музыки аранжированные в стиле Synthesizer Dance. Отметился на первом альбоме и A. Maiola (Кото), он занимался аранжировкой песни группы Vangelis "Pulstar".

Второй альбом "Lost In Space" был написан и аранжирован в 1992 году небезызвестным в этих кругах Humphrerey Robertson в пору реанимации на ZYX старых проектов в стиле Synth Dance.

Группа записывалась на лейбле ZYX.
Код: Выделить всё
Exact Audio Copy V0.99 prebeta 5 from 4. May 2009

Отчёт EAC об извлечении, выполненном 10. декабря 2011, 18:43

Hypnosis / Lost In Space

Дисковод: HL-DT-STDVDRAM GSA-4167B   Adapter: 3  ID: 0

Режим чтения                 : Достоверность
Использование точного потока : Да
Отключение кэша аудио        : Да
Использование указателей C2  : Нет

Коррекция смещения при чтении                     : 667
Способность читать области Lead-in и Lead-out     : Нет
Заполнение пропущенных сэмплов тишиной            : Да
Удаление блоков с тишиной в начале и конце        : Нет
При вычислениях CRC использовались нулевые сэмплы : Да
Интерфейс                                         : Встроенный Win32-интерфейс для Win NT/2000

Выходной формат : Внутренние WAV-операции
Формат сэмплов  : 44.100 Гц; 16 бит; стерео

TOC извлечённого CD

     Трек |   Старт  | Длительность | Начальный сектор | Конечный сектор
    ---------------------------------------------------------------------
       1  |  0:00.00 |    5:56.45   |           0      |      26744
       2  |  5:56.45 |    5:54.00   |       26745      |      53294
       3  | 11:50.45 |    5:09.45   |       53295      |      76514
       4  | 17:00.15 |    6:37.00   |       76515      |     106289
       5  | 23:37.15 |    6:24.60   |      106290      |     135149
       6  | 30:02.00 |    6:42.00   |      135150      |     165299
       7  | 36:44.00 |    7:16.31   |      165300      |     198030
       8  | 44:00.31 |    5:08.00   |      198031      |     221130
       9  | 49:08.31 |    8:45.46   |      221131      |     260551
      10  | 57:54.02 |    8:30.01   |      260552      |     298802

Характеристики диапазона извлечения и сообщения об ошибках

Выбранный диапазон

     Имя файла E:\My Favourite Music\Hypnosis FLAC\Hypnosis-Lost In Space - 1992.wav

     Пиковый уровень 97.7 %
     Качество диапазона 100.0 %
     CRC копии 31581535
     Копирование... OK

Ошибок не произошло

Конец отчёта
Код: Выделить всё
REM GENRE "Synth-pop"
REM DATE 1992
REM DISCID 790F900A
REM COMMENT "ExactAudioCopy v0.99pb5"
PERFORMER "Hypnosis"
TITLE "Lost In Space"
FILE "Hypnosis-Lost In Space - 1992.flac" WAVE
  TRACK 01 AUDIO
    TITLE "Lost Memory's"
    PERFORMER "Hypnosis"
    INDEX 01 00:00:00
  TRACK 02 AUDIO
    TITLE "Space War's"
    PERFORMER "Hypnosis"
    INDEX 01 05:56:45
  TRACK 03 AUDIO
    TITLE "Planet To Planet"
    PERFORMER "Hypnosis"
    INDEX 01 11:50:45
  TRACK 04 AUDIO
    TITLE "Lost In Space"
    PERFORMER "Hypnosis"
    INDEX 01 17:00:15
  TRACK 05 AUDIO
    TITLE "Battle Of Time"
    PERFORMER "Hypnosis"
    INDEX 01 23:37:15
  TRACK 06 AUDIO
    TITLE "Wave Runner"
    PERFORMER "Hypnosis"
    INDEX 01 30:02:00
  TRACK 07 AUDIO
    TITLE "Last Fight"
    PERFORMER "Hypnosis"
    INDEX 01 36:44:00
  TRACK 08 AUDIO
    TITLE "Vocoder Dream"
    PERFORMER "Hypnosis"
    INDEX 01 44:00:31
  TRACK 09 AUDIO
    TITLE "Lost In Space (Remix)"
    PERFORMER "Hypnosis"
    INDEX 01 49:08:31
  TRACK 10 AUDIO
    TITLE "Wave Runner (Dub)"
    PERFORMER "Hypnosis"
    INDEX 01 57:54:02
Код: Выделить всё
-----------------------

DON'T MODIFY THIS FILE

-----------------------

PERFORMER: auCDtect Task Manager, ver. 1.6.0 RC1 build 1.6.0.1
Copyright (c) 2008-2010 y-soft. All rights reserved
[url=http://y-soft.org]http://y-soft.org[/url]

ANALYZER: auCDtect: CD records authenticity detector, version 0.8.2
Copyright (c) 2004 Oleg Berngardt. All rights reserved.
Copyright (c) 2004 Alexander Djourik. All rights reserved.

FILE: Hypnosis-Lost In Space - 1992.flac
  Size: 464317218 Hash: EF84E20C1B355D5F291A1C930DD609D8 Accuracy: -m0
  Conclusion: CDDA 100%
  Signature: E2BFAF016470FCE9C37FACDA6BBA6056010A99CE
 
Не забывайте говорить Спасибо. Не уходите с раздачи!   
Торрент: Зарегистрирован [14 май 2018, 23:00] Скачать торрент
Скачать торрент
[ Размер 18.68 КБ / Просмотров 16 ]
Статус:
Проверен
 
.torrent скачан: 0 раз
Хэш: eedc1bd695abae3f3b4f6f250563dfa4fe590c12
Размер: 447.07 МБ (468 790 426 байт)
Стать Автором раздачи
 
 
Раздал: 100 ГБ
Скачал: 0 байт
Ратио: Seed.
Сообщения: 112057
Зарегистрирован: 09 апр 2015, 22:31


  • Похожие торренты
    Ответы
    Просмотры
    Последнее сообщение

Вернуться в Synthpop, New Wave (транзит Lossless)

Ресурс не предоставляет электронные версии произведений, а занимается лишь коллекционированием и каталогизацией ссылок, присылаемых и публикуемых на форуме нашими читателями. Если вы являетесь правообладателем какого-либо представленного материала и не желаете чтобы ссылка на него находилась в нашем каталоге, свяжитесь с нами и мы незамедлительно удалим её. Файлы для обмена на трекере предоставлены пользователями сайта, и администрация не несёт ответственности за их содержание. Просьба не заливать файлы, защищенные авторскими правами, а также файлы нелегального содержания!