NGW: Дикая природа Чили / Wild Chile (2017) DVB [H.264/1080i-LQ] (Серии 1-2 из 3) (Обновляемая)

 
 Статистика раздачи 
Размер: 4.68 ГБ   |  Зарегистрирован: 14 май 2018, 20:57   |   .torrent скачан: 0 раз
Сидеров: 1  [ 0 байт/сек ]     Личеров: 0  [ 0 байт/сек ]  
  

NGW: Дикая природа Чили / Wild Chile (2017) DVB [H.264/1080i-LQ] (Серии 1-2 из 3) (Обновляемая)

Сообщение explosiveone » 14 май 2018, 20:57

Дикая природа Чили / Wild Chile (2017) DVB [H.264/1080i-LQ] (Серии 1-2 из 3)

Производство: США, Off the Fence for National Geographic
Жанр: Документальный, научно-популярный, фауна, флора

Режиссер: Эллисон Бин

Описание:
Этот прекрасный, интригующий сериал познакомит вас с невероятной по красоте дикой природой Чили, в которой можно встретить самые разнообразные растения и животных.

Релиз от: skorpionN
Продолжительность: серии x ~00:44:00
Качество видео: DVB
Перевод: Одноголосый закадровый, профессиональный (Велес)
Субтитры: отсутствуют

Видео: AVC/H.264, 1920x1080, ~6890 Kbps
Аудио#1: MP2, 2 ch, 192 Kbps | Русский (текст читал: Олег Белов)
Аудио#2: MP2, 2 ch, 192 Kbps | Английский
Код: Выделить всё
Общее
Идентификатор                            : 1 (0x1)
Полное имя                               : F:\КИНО\NGW_Wild Chile_720p\01_Ends of Earth.ts
Формат                                   : MPEG-TS
Размер файла                             : 2,35 Гбайт
Продолжительность                        : 43 м. 58 с.
Режим общего битрейта                    : Переменный
Общий поток                              : 7652 Кбит/сек

Видео
Идентификатор                            : 201 (0xC9)
Идентификатор меню                       : 20101 (0x4E85)
Формат                                   : AVC
Формат/Информация                        : Advanced Video Codec
Профиль формата                          : High@L4
Настройки формата                        : CABAC / 4 Ref Frames
Параметр CABAC формата                   : Да
Параметр RefFrames формата               : 4 кадра
Идентификатор кодека                     : 27
Продолжительность                        : 43 м. 58 с.
Битрейт                                  : 6886 Кбит/сек
Ширина                                   : 1920 пикселей
Высота                                   : 1080 пикселей
Соотношение сторон                       : 16:9
Частота кадров                           : 25,000 кадров/сек
Стандарт вещания                         : Component
Цветовое пространство                    : YUV
Субдискретизация насыщенности            : 4:2:0
Битовая глубина                          : 8 бит
Тип развёртки                            : Чересстрочная
Метод сохранения типа развёртки          : Раздельные поля
Порядок развёртки                        : Верхнее поле первое
Бит/(Пиксели*Кадры)                      : 0.133
Размер потока                            : 2,12 Гбайт (90%)
Цветовой диапазон                        : Limited
Основные цвета                           : BT.709
Характеристики трансфера                 : BT.709
Коэффициенты матрицы                     : BT.709

Аудио #1
Идентификатор                            : 301 (0x12D)
Идентификатор меню                       : 20101 (0x4E85)
Формат                                   : MPEG Audio
Версия формата                           : Version 1
Профиль формата                          : Layer 2
Идентификатор кодека                     : 3
Продолжительность                        : 43 м. 58 с.
Вид битрейта                             : Постоянный
Битрейт                                  : 192 Кбит/сек
Каналы                                   : 2 канала
Частота                                  : 48,0 КГц
Частота кадров                           : 41,667 кадра/сек (1152 SPF)
Метод сжатия                             : С потерями
Задержка видео                           : -120 мс.
Размер потока                            : 60,4 Мбайт (3%)
Язык                                     : Russian

Аудио #2
Идентификатор                            : 302 (0x12E)
Идентификатор меню                       : 20101 (0x4E85)
Формат                                   : MPEG Audio
Версия формата                           : Version 1
Профиль формата                          : Layer 2
Идентификатор кодека                     : 3
Продолжительность                        : 43 м. 58 с.
Вид битрейта                             : Постоянный
Битрейт                                  : 192 Кбит/сек
Каналы                                   : 2 канала
Частота                                  : 48,0 КГц
Частота кадров                           : 41,667 кадра/сек (1152 SPF)
Метод сжатия                             : С потерями
Задержка видео                           : -120 мс.
Размер потока                            : 60,4 Мбайт (3%)
Язык                                     : English
01. Конец Земли / Ends of the Earth
Вы проследуете от холодных вод Огненной земли и Антарктического полуострова до замерзших степей Патагонии, чтобы познакомиться с тем, как выживают животные в этих суровых местах.
02. Земля до начала времен / Land Before Time
В лесах Чили редкие и древние существа раскрывают тайны прошлого Южной Америки.
Сильные западные ветры, приносящие обильные дожди в регион, где расположен город Вальдивия в Чили, способствуют бурному росту дождевых лесов, густо покрывающих всю эту неотропическую экозону.
03. Жизнь без воды / Life Without Water
Чилийская пустыня Атакама - враждебная пустыня, где жизнь цепляется за край существования.
При каждом добавлении создаётся новый торрент. Чтобы начать докачку новой серии, пользователям
необходимо сделать следующее:
- Остановить скачивание.
- Удалить старый торрент у себя из клиента (старые серии удалять не надо).
- Скачать новый торрент и запустить его у себя в клиенте вместо старого, при этом указать клиенту путь в старую папку куда и должно происходить скачивание новых серий.

Скриншоты:



Время раздачи: с 21:00 до 09:00 (до появления первых 3-5 скачавших)
 
Не забывайте говорить Спасибо. Не уходите с раздачи!   
Торрент: Зарегистрирован [14 май 2018, 20:57] Для скачивания .torrent
необходима регистрация
Или скачать с помощью
MediaGet
Статус:
Проверен
 
.torrent скачан: 0 раз
Хэш: cd3640de3a070085f7ef8820c10fe6de9878b818
Размер: 4.68 ГБ (5 028 978 756 байт)
Стать Автором раздачи
 
 
Раздал: 100 ГБ
Скачал: 0 байт
Ратио: Seed.
Сообщения: 102037
Зарегистрирован: 09 апр 2015, 22:31


  • Похожие торренты
    Ответы
    Просмотры
    Последнее сообщение

Вернуться в National Geographic

Ресурс не предоставляет электронные версии произведений, а занимается лишь коллекционированием и каталогизацией ссылок, присылаемых и публикуемых на форуме нашими читателями. Если вы являетесь правообладателем какого-либо представленного материала и не желаете чтобы ссылка на него находилась в нашем каталоге, свяжитесь с нами и мы незамедлительно удалим её. Файлы для обмена на трекере предоставлены пользователями сайта, и администрация не несёт ответственности за их содержание. Просьба не заливать файлы, защищенные авторскими правами, а также файлы нелегального содержания!