Оперативная разработка 2: Комбинат (2008) WEBRip [H.264/1080p-LQ]

 
 Статистика раздачи 
Размер: 2.32 ГБ   |  Зарегистрирован: 14 май 2018, 17:45   |   .torrent скачан: 0 раз
Сидеров: 1  [ 0 байт/сек ]     Личеров: 0  [ 0 байт/сек ]  
  

Оперативная разработка 2: Комбинат (2008) WEBRip [H.264/1080p-LQ]

Сообщение explosiveone » 14 май 2018, 17:45

Оперативная разработка 2: Комбинат (2008) WEBRip [H.264/1080p-LQ]

Производство: Россия
Жанр: Детектив

Режиссер: Александр Бурцев
Актеры: Александр Блок, Александр Большаков, Константин Воробьёв, Андрей Зибров, Олег Штефанко, Константин Панченко, Мария Степанова, Олег Чернов, Сергей Чудаков, Сергей Кошонин

Описание:
Оперативная группа под командованием майора Олега Сорокина сталкивается с опасным и многоликим противником. Криминальные авторитеты из Ростова-на-Дону стремятся расширить круг своего влияние до Санкт-Петербурга и взять под контроль крупный фармацевтический комбинат. Однако в ходе расследования неожиданно возникает не менее грозная, но куда более коварная «третья сила», заинтересованная в захвате комбината.


Возраст: 16+ (зрителям, достигшим 16 лет)

Релиз от: Aлexandr
Продолжительность: 01:33:12
Качество видео: WEBRip
Субтитры: Отсутствуют

Видео: AVC/H.264, 1920x1080 (16:9), ~3305 Kbps
Аудио: AC3, 2 ch, 192 Kbps
Код: Выделить всё
Общее
Уникальный идентификатор                 : 304585259482979238597801220623104496774 (0xE524FCB83419A5E48C05E517FAD05486)
Полное имя                               : D:\Оперативная разработка 2 Комбинат (2008).by.Алехаndr.mkv
Формат                                   : Matroska
Версия формата                           : Version 4 / Version 2
Размер файла                             : 2,32 Гбайт
Продолжительность                        : 1 ч. 33 м.
Общий поток                              : 3566 Кбит/сек
Программа кодирования                    : Lavf57.71.100
Библиотека кодирования                   : Lavf57.71.100
ErrorDetectionType                       : Per level 1

Видео
Идентификатор                            : 1
Формат                                   : AVC
Формат/Информация                        : Advanced Video Codec
Профиль формата                          : High@L4
Настройки формата                        : CABAC / 2 Ref Frames
Параметр CABAC формата                   : Да
Параметр RefFrames формата               : 2 кадра
Идентификатор кодека                     : V_MPEG4/ISO/AVC
Продолжительность                        : 1 ч. 33 м.
Битрейт                                  : 3303 Кбит/сек
Ширина                                   : 1920 пикселей
Высота                                   : 1080 пикселей
Соотношение сторон                       : 16:9
Режим частоты кадров                     : Постоянный
Частота кадров                           : 25,000 кадров/сек
Цветовое пространство                    : YUV
Субдискретизация насыщенности            : 4:2:0
Битовая глубина                          : 8 бит
Тип развёртки                            : Прогрессивная
Бит/(Пиксели*Кадры)                      : 0.064
Размер потока                            : 2,15 Гбайт (93%)
Default                                  : Да
Forced                                   : Нет
Цветовой диапазон                        : Limited
Основные цвета                           : BT.709
Характеристики трансфера                 : BT.709
Коэффициенты матрицы                     : BT.709

Аудио
Идентификатор                            : 2
Формат                                   : AC-3
Формат/Информация                        : Audio Coding 3
Идентификатор кодека                     : A_AC3
Продолжительность                        : 1 ч. 33 м.
Вид битрейта                             : Постоянный
Битрейт                                  : 192 Кбит/сек
Каналы                                   : 2 канала
Расположение каналов                     : Front: L R
Частота                                  : 48,0 КГц
Частота кадров                           : 31,250 кадров/сек (1536 SPF)
Битовая глубина                          : 16 бит
Метод сжатия                             : С потерями
Размер потока                            : 128 Мбайт (5%)
ServiceKind/String                       : Complete Main
Default                                  : Да
Forced                                   : Нет

Скриншоты:




Время раздачи: 24/7 (круглосуточно) (до появления первых 3-5 скачавших)
 
Не забывайте говорить Спасибо. Не уходите с раздачи!   
Торрент: Зарегистрирован [14 май 2018, 17:45] Для скачивания .torrent
необходима регистрация
Или скачать с помощью
MediaGet
Статус:
Проверен
 
.torrent скачан: 0 раз
Хэш: 22aae87438c6483079b6ebde49a774ef555db472
Размер: 2.32 ГБ (2 493 360 509 байт)
Стать Автором раздачи
 
 
Раздал: 100 ГБ
Скачал: 0 байт
Ратио: Seed.
Сообщения: 100000
Зарегистрирован: 09 апр 2015, 22:31


  • Похожие торренты
    Ответы
    Просмотры
    Последнее сообщение

Вернуться в Отечественные фильмы 2006-2010 года

Ресурс не предоставляет электронные версии произведений, а занимается лишь коллекционированием и каталогизацией ссылок, присылаемых и публикуемых на форуме нашими читателями. Если вы являетесь правообладателем какого-либо представленного материала и не желаете чтобы ссылка на него находилась в нашем каталоге, свяжитесь с нами и мы незамедлительно удалим её. Файлы для обмена на трекере предоставлены пользователями сайта, и администрация не несёт ответственности за их содержание. Просьба не заливать файлы, защищенные авторскими правами, а также файлы нелегального содержания!