Продается медвежья шкура (1980) TVRip

 
 Статистика раздачи 
Размер: 904.46 МБ   |  Зарегистрирован: 14 май 2018, 14:30   |   .torrent скачан: 0 раз
Сидеров: 1  [ 0 байт/сек ]     Личеров: 0  [ 0 байт/сек ]  
  

Продается медвежья шкура (1980) TVRip

Сообщение explosiveone » 14 май 2018, 14:30

Продается медвежья шкура (1980) TVRip

Производство: CCCР
Жанр: Драма

Режиссер: Александр Итыгилов
Актеры: Стасис Пятронайтис, Михаил Жигжитов, Борислав Брондуков, Ольга Матешко, Виталий Шаповалов

Описание:
Охотник Василь убивает медведицу. Оставшийся в живых медведь кидается на охотника и получает ранение. И теперь рассвирепевший израненный зверь преследует человека…


Возраст: 16+ (зрителям, достигшим 16 лет)

Релиз от: Aлexandr
Продолжительность: 01:03:15
Качество видео: TVRip
Субтитры: Отсутствуют

Видео: Xvid, 720x576, ~1795 Kbps
Аудио: MP3, 2 ch, 192 Kbps
Код: Выделить всё
Общее
Полное имя                               : D:\Продается медвежья шкура (1980).by.Алехаndr.avi
Формат                                   : AVI
Формат/Информация                        : Audio Video Interleave
Размер файла                             : 904 Мбайт
Продолжительность                        : 1 ч. 3 м.
Общий поток                              : 1999 Кбит/сек
Программа кодирования                    : Lavf57.41.100

Видео
Идентификатор                            : 0
Формат                                   : xvid
Идентификатор кодека                     : xvid
Продолжительность                        : 1 ч. 3 м.
Битрейт                                  : 1794 Кбит/сек
Ширина                                   : 720 пикселей
Высота                                   : 576 пикселей
Соотношение сторон                       : 1,229
Частота кадров                           : 25,000 кадров/сек
Стандарт вещания                         : PAL
Тип развёртки                            : Прогрессивная
Бит/(Пиксели*Кадры)                      : 0.173
Размер потока                            : 812 Мбайт (90%)

Аудио
Идентификатор                            : 1
Формат                                   : MPEG Audio
Версия формата                           : Version 1
Профиль формата                          : Layer 3
Настройки формата                        : Joint stereo / MS Stereo
Идентификатор кодека                     : 55
Идентификатор кодека/Подсказка           : MP3
Продолжительность                        : 1 ч. 3 м.
Вид битрейта                             : Постоянный
Битрейт                                  : 192 Кбит/сек
Каналы                                   : 2 канала
Частота                                  : 48,0 КГц
Метод сжатия                             : С потерями
Размер потока                            : 86,9 Мбайт (10%)
Выравнивание                             : Соединение по промежуткам
Продолжительность промежутка             : 24  мс. (0,60 видеокадр)
Время предзагрузки промежутка            : 24  мс.
Библиотека кодирования                   : LAME3.99.5

Скриншоты:




Время раздачи: 24/7 (круглосуточно) (до появления первых 3-5 скачавших)
 
Не забывайте говорить Спасибо. Не уходите с раздачи!   
Торрент: Зарегистрирован [14 май 2018, 14:30] Для скачивания .torrent
необходима регистрация
Или скачать с помощью
MediaGet
Статус:
Проверен
 
.torrent скачан: 0 раз
Хэш: 75fc5a5d113e7b55f4bf480cdddb7290484fffd8
Размер: 904.46 МБ (948 396 168 байт)
Стать Автором раздачи
 
 
Раздал: 100 ГБ
Скачал: 0 байт
Ратио: Seed.
Сообщения: 101394
Зарегистрирован: 09 апр 2015, 22:31


  • Похожие торренты
    Ответы
    Просмотры
    Последнее сообщение

Вернуться в Кино СССР, Советской России, Российской республики (1917-1991)

Ресурс не предоставляет электронные версии произведений, а занимается лишь коллекционированием и каталогизацией ссылок, присылаемых и публикуемых на форуме нашими читателями. Если вы являетесь правообладателем какого-либо представленного материала и не желаете чтобы ссылка на него находилась в нашем каталоге, свяжитесь с нами и мы незамедлительно удалим её. Файлы для обмена на трекере предоставлены пользователями сайта, и администрация не несёт ответственности за их содержание. Просьба не заливать файлы, защищенные авторскими правами, а также файлы нелегального содержания!