5 неизвестных / Unknown (Саймон Брэнд / Simon Brand) [2006, США, триллер, драма, криминал, детектив, BDRip] DVO (т/к "Россия") + DVO (Рен-ТВ)

 
 Статистика раздачи 
Размер: 1.36 ГБ   |  Зарегистрирован: 14 май 2018, 13:39   |   .torrent скачан: 0 раз
Сидеров: 1  [ 0 байт/сек ]     Личеров: 0  [ 0 байт/сек ]  
  

5 неизвестных / Unknown (Саймон Брэнд / Simon Brand) [2006, США, триллер, драма, криминал, детектив, BDRip] DVO (т/к "Россия") + DVO (Рен-ТВ)

Сообщение Nakazhu » 14 май 2018, 13:39

5 неизвестных

Unknown
Год выпуска: 2006
Страна: США
Жанр: триллер, драма, криминал, детектив
Продолжительность: 01:25:16
Перевод:
- Профессиональный (двухголосый закадровый) - Россия
- Профессиональный (двухголосый закадровый) - Рен-ТВ
Субтитры: отсутствуют
Режиссёр: Саймон Брэнд: Simon Brand
В ролях: Джеймс Кэвизел, Грэг Киннер, Бриджет Мойнахан, Джо Пантольяно, Бэрри Пеппер, Джереми Систо, Питер Стормар.
О фильме: Пятеро мужчин приходят в себя на заброшенном, наглухо закрытом складе — один смертельно ранен и прикован наручниками к трубе, у второго сломан нос, третий связан, двое оставшихся — целы, в синяках и ссадинах. У каждого амнезия.
На столе — позавчерашняя газета со статьей на первой полосе о похищении двух богатых бизнесменов. Тем временем, на свободе полиция и жена одного из похищенных готовят выкуп, пытаясь заманить в ловушку главаря банды похитителей.
Похоже, на складе оказались заперты и преступники, и жертвы. Но кто из них кто? Неужели похитители связаны и прикованы, а те, кто пострадал меньше всего — жертвы, победившие и наказавшие злодеев? Или же разгадка находится за пределами заброшенного склада?

Данные переводы появляются на трекере впервые.
- За аудиодорожку с переводом России благодарность Стас Горбунов.
- Перевод Рен-ТВ записан с телеканала "Новое телевидение" (Караганда). Качество звука весьма посредственное.
- Роли озвучивали: Олег Куценко, Людмила Ильина.

Семпл: https://www.sendspace.com/file/f0j9ny
Качество: BDRip
Формат: AVI
Видео: XviD, 720х304 (2,35:1), 23,976 fps, ~1984 kbps, 0.378 bit/pixel
Аудио #1: [RUS] 48 kHz, AC3, 1 ch, 192 kbps - DVO (Россия)
Аудио #2: [RUS] 48 kHz, AC3, 1 ch, 96 kbps - DVO (Рен-ТВ)
Код: Выделить всё
Общее
Полное имя                               : F:\5.neizvestnyh.2006.BDRip.DVO.Rossia.Ren-TV.avi
Формат                                   : AVI
Формат/Информация                        : Audio Video Interleave
Размер файла                             : 1,36 Гбайт
Продолжительность                        : 1 ч. 25 м.
Общий поток                              : 2286 Кбит/сек
Программа кодирования                    : VirtualDubMod 1.5.10.2 (build 2540/release)
Библиотека кодирования                   : VirtualDubMod build 2540/release
Видео
Идентификатор                            : 0
Формат                                   : MPEG-4 Visual
Профиль формата                          : Advanced Simple@L5
Параметр BVOP формата                    : 1
Параметр QPel формата                    : Нет
Параметр GMC формата                     : Без точки перехода
Параметр матрицы формата                 : Выборочная
Идентификатор кодека                     : XVID
Идентификатор кодека/Подсказка           : XviD
Продолжительность                        : 1 ч. 25 м.
Битрейт                                  : 1984 Кбит/сек
Ширина                                   : 720 пикселей
Высота                                   : 304 пикселя
Соотношение сторон                       : 2,35:1
Частота кадров                           : 23,976 (24000/1001) кадра/сек
Цветовое пространство                    : YUV
Субдискретизация насыщенности            : 4:2:0
Битовая глубина                          : 8 бит
Тип развёртки                            : Прогрессивная
Метод сжатия                             : С потерями
Бит/(Пиксели*Кадры)                      : 0.378
Размер потока                            : 1,18 Гбайт (87%)
Библиотека кодирования                   : XviD 57
Аудио #1
Идентификатор                            : 1
Формат                                   : AC-3
Формат/Информация                        : Audio Coding 3
Параметр Endianness формата              : Big
Идентификатор кодека                     : 2000
Продолжительность                        : 1 ч. 25 м.
Вид битрейта                             : Постоянный
Битрейт                                  : 192 Кбит/сек
Каналы                                   : 1 канал
Расположение каналов                     : Front: C
Частота                                  : 48,0 КГц
Частота кадров                           : 31,250 кадров/сек (1536 SPF)
Битовая глубина                          : 16 бит
Метод сжатия                             : С потерями
Размер потока                            : 117 Мбайт (8%)
Выравнивание                             : Разделение по промежуткам
Продолжительность промежутка             : 42  мс. (1,00 видеокадр)
Время предзагрузки промежутка            : 500  мс.
ServiceKind/String                       : Complete Main
Аудио #2
Идентификатор                            : 2
Формат                                   : AC-3
Формат/Информация                        : Audio Coding 3
Параметр Endianness формата              : Big
Идентификатор кодека                     : 2000
Продолжительность                        : 1 ч. 25 м.
Вид битрейта                             : Постоянный
Битрейт                                  : 96,0 Кбит/сек
Каналы                                   : 1 канал
Расположение каналов                     : Front: C
Частота                                  : 48,0 КГц
Частота кадров                           : 31,250 кадров/сек (1536 SPF)
Битовая глубина                          : 16 бит
Метод сжатия                             : С потерями
Размер потока                            : 58,5 Мбайт (4%)
Выравнивание                             : Разделение по промежуткам
Продолжительность промежутка             : 42  мс. (1,00 видеокадр)
Время предзагрузки промежутка            : 500  мс.
ServiceKind/String                       : Complete Main
 
Не забывайте говорить Спасибо. Не уходите с раздачи!   
Торрент: Зарегистрирован [14 май 2018, 13:39] Для скачивания .torrent
необходима регистрация
Или скачать с помощью
MediaGet
Статус:
Проверен
 
.torrent скачан: 0 раз
Хэш: d8ff6b6ead13659744ab6b80a61d81d9798ba42e
Размер: 1.36 ГБ (1 462 038 528 байт)
Стать Автором раздачи
 
 
Раздал: 0 байт
Скачал: 0 байт
Ратио: Inf.
Сообщения: 487468
Зарегистрирован: 17 апр 2014, 13:57


  • Похожие торренты
    Ответы
    Просмотры
    Последнее сообщение

Вернуться в Зарубежные фильмы 2006-2010 года

Ресурс не предоставляет электронные версии произведений, а занимается лишь коллекционированием и каталогизацией ссылок, присылаемых и публикуемых на форуме нашими читателями. Если вы являетесь правообладателем какого-либо представленного материала и не желаете чтобы ссылка на него находилась в нашем каталоге, свяжитесь с нами и мы незамедлительно удалим её. Файлы для обмена на трекере предоставлены пользователями сайта, и администрация не несёт ответственности за их содержание. Просьба не заливать файлы, защищенные авторскими правами, а также файлы нелегального содержания!
cron