Скиф (2017) WEB-DLRip [H.264]

 
 Статистика раздачи 
Размер: 1.85 ГБ   |  Зарегистрирован: 14 май 2018, 04:22   |   .torrent скачан: 0 раз
Сидеров: 1  [ 0 байт/сек ]     Личеров: 0  [ 0 байт/сек ]  
  

Скиф (2017) WEB-DLRip [H.264]

Сообщение explosiveone » 14 май 2018, 04:22

Скиф (2017) WEB-DLRip [H.264]

«Не в богах дело, в людях...»
Производство: Россия, Кинокомпания СТВ
Жанр: Драма, История, Фэнтези, Боевик, Приключения

Режиссер: Рустам Мосафир
Продюсер: Сергей Сельянов
Актеры: Алексей Фаддеев, Виталий Кравченко, Александр Кузнецов, Александр Пацевич, Юрий Цурило, Андрей Пермяков, Василиса Измайлова, Алексей Овсянников, Фёдор Рощин, Рустам Мосафир

Описание:
Действие фильма происходит во время смены цивилизаций. В Евразии начинается новая эра. Ушли в небытие гордые воины — скифы, их вымирающие потомки превратились в безжалостных наемных убийц, «волков Ареса». Ратнику Лютобору предстоит тяжелое испытание. Втянутый в междоусобные интриги он отправляется в опасный путь ради спасения семьи, а его проводником становится пленный скиф Куница. Они — враги и молятся разным богам, но вынуждены идти вместе. Через дикий степной мир к пристанищу последних скифов, где их ждет почти неминуемая смерть...

http://www.imdb.com/title/tt7844166/?ref_=plg_rt_1
Возраст: 18+ (зрителям, достигшим 18 лет. запрещено для детей)
Дата российской премьеры: 18 января 2018, «Наше Кино»
Цифровой релиз:20 февраля 2018, «СТВ»

Продолжительность: 01:40:08
Качество видео: WEB-DLRip AVC
Перевод: Не требуется (русский) iTunes
Субтитры: Отсутствуют

Видео: AVC/H.264, 1024x432, ~2202 Kbps
Аудио: AC3, 6 ch, 384 Kbps
Код: Выделить всё
Общее
Уникальный идентификатор                 : 297353013441097023029636894529705553098 (0xDFB41B75A7474E9E213CB9892A312CCA)
Полное имя                               : D:\Видео\torrrent\SKIF.WEB-DLRIP.AVC.mkv
Формат                                   : Matroska
Версия формата                           : Version 4 / Version 2
Размер файла                             : 1,85 Гбайт
Продолжительность                        : 1 ч. 40 м.
Общий поток                              : 2638 Кбит/сек
Программа кодирования                    : XviD4PSP 7.0.443 DAILY
Библиотека кодирования                   : Lavf57.71.100
Авторское право                          : gxtkf
ErrorDetectionType                       : Per level 1
ENCODING_INFO                            : MATROSKA,WEBM > MKV 1080p / H264 > X264 CBR 2400kbps HQ / AC3 > AC3 CBR 384kbps

Видео
Идентификатор                            : 1
Формат                                   : AVC
Формат/Информация                        : Advanced Video Codec
Профиль формата                          : [url=http://nnmclub.to/mailto:High@L3.1]High@L3.1[/url]
Параметр CABAC формата                   : Да
Параметр RefFrames формата               : 4 кадра
Идентификатор кодека                     : V_MPEG4/ISO/AVC
Продолжительность                        : 1 ч. 40 м.
Битрейт                                  : 2202 Кбит/сек
Номинальный битрейт                      : 2400 Кбит/сек
Ширина                                   : 1024 пикселя
Высота                                   : 432 пикселя
Соотношение сторон                       : 2,40:1
Режим частоты кадров                     : Постоянный
Частота кадров                           : 24,000 кадра/сек
Цветовое пространство                    : YUV
Субдискретизация насыщенности            : 4:2:0
Битовая глубина                          : 8 бит
Тип развёртки                            : Прогрессивная
Бит/(Пиксели*Кадры)                      : 0.207
Размер потока                            : 1,54 Гбайт (83%)
Заголовок                                : SKIF_WEB_DL_1080p-BLUEBIRD
Библиотека кодирования                   : x264 core 155 r2901M 7d0ff22
Настройки программы                      : cabac=1 / ref=3 / deblock=1:-1:-1 / analyse=0x3:0x133 / me=hex / subme=7 / psy=1 / psy_rd=1.00:0.20 / mixed_ref=1 / me_range=16 / chroma_me=1 / trellis=1 / 8x8dct=1 / cqm=0 / deadzone=21,11 / fast_pskip=1 / chroma_qp_offset=-3 / threads=5 / lookahead_threads=1 / sliced_threads=0 / nr=0 / decimate=1 / interlaced=0 / bluray_compat=0 / constrained_intra=0 / bframes=3 / b_pyramid=2 / b_adapt=2 / b_bias=0 / direct=3 / weightb=1 / open_gop=0 / weightp=2 / keyint=240 / keyint_min=24 / scenecut=40 / intra_refresh=0 / rc_lookahead=40 / rc=cbr / mbtree=1 / bitrate=2400 / ratetol=1.0 / qcomp=0.60 / qpmin=0 / qpmax=69 / qpstep=4 / vbv_maxrate=2400 / vbv_bufsize=1714 / nal_hrd=none / filler=0 / ip_ratio=1.40 / aq=1:1.00
Язык                                     : English
Default                                  : Да
Forced                                   : Нет
Цветовой диапазон                        : Limited
Основные цвета                           : BT.709
Характеристики трансфера                 : BT.709
Коэффициенты матрицы                     : BT.709

Аудио
Идентификатор                            : 2
Формат                                   : AC-3
Формат/Информация                        : Audio Coding 3
Параметр Endianness формата              : Big
Идентификатор кодека                     : A_AC3
Продолжительность                        : 1 ч. 40 м.
Вид битрейта                             : Постоянный
Битрейт                                  : 384 Кбит/сек
Каналы                                   : 6 каналов
Расположение каналов                     : Front: L C R, Side: L R, LFE
Частота                                  : 48,0 КГц
Частота кадров                           : 31,250 кадров/сек (1536 SPF)
Битовая глубина                          : 16 бит
Метод сжатия                             : С потерями
Размер потока                            : 275 Мбайт (15%)
Заголовок                                : [ORIGINAL] DD 5.1 @ 384 kbps (iTunes)
Язык                                     : Russian
ServiceKind/String                       : Complete Main
Default                                  : Да
Forced                                   : Нет

Меню
00:00:00.000                             : :Глава 1
00:05:12.360                             : :Глава 2
00:11:34.680                             : :Глава 3
00:17:38.400                             : :Глава 4
00:24:35.840                             : :Глава 5
00:30:40.600                             : :Глава 6
00:37:38.320                             : :Глава 7
00:43:34.960                             : :Глава 8
00:50:05.840                             : :Глава 9
00:56:41.760                             : :Глава 10
01:02:36.120                             : :Глава 11
01:10:08.200                             : :Глава 12
01:14:43.640                             : :Глава 13
01:19:27.320                             : :Глава 14
01:25:07.920                             : :Глава 15

Скриншоты:




Время раздачи: 24/7 (до появления первых 3-5 скачавших)
 
Не забывайте говорить Спасибо. Не уходите с раздачи!   
Торрент: Зарегистрирован [14 май 2018, 04:22] Скачать торрент
Скачать торрент
[ Размер 37.73 КБ / Просмотров 7 ]
Статус:
Проверен
 
.torrent скачан: 0 раз
Хэш: ea5a0f09b36831e8e55a6518da2f4d8d4409b1de
Размер: 1.85 ГБ (1 981 515 813 байт)
Стать Автором раздачи
 
 
Раздал: 100 ГБ
Скачал: 0 байт
Ратио: Seed.
Сообщения: 102835
Зарегистрирован: 09 апр 2015, 22:31


  • Похожие торренты
    Ответы
    Просмотры
    Последнее сообщение

Вернуться в Отечественное кино

Ресурс не предоставляет электронные версии произведений, а занимается лишь коллекционированием и каталогизацией ссылок, присылаемых и публикуемых на форуме нашими читателями. Если вы являетесь правообладателем какого-либо представленного материала и не желаете чтобы ссылка на него находилась в нашем каталоге, свяжитесь с нами и мы незамедлительно удалим её. Файлы для обмена на трекере предоставлены пользователями сайта, и администрация не несёт ответственности за их содержание. Просьба не заливать файлы, защищенные авторскими правами, а также файлы нелегального содержания!