NG: Неизвестная планета Земля / One Strange Rock (2018) IPTVRip [H.264] (сезон 1, серия 1-8 из 10) (Обновляемая)

 
 Статистика раздачи 
Размер: 4.64 ГБ   |  Зарегистрирован: 13 май 2018, 23:21   |   .torrent скачан: 0 раз
Сидеров: 1  [ 0 байт/сек ]     Личеров: 0  [ 0 байт/сек ]  
  

NG: Неизвестная планета Земля / One Strange Rock (2018) IPTVRip [H.264] (сезон 1, серия 1-8 из 10) (Обновляемая)

Сообщение explosiveone » 13 май 2018, 23:21

Неизвестная планета Земля / One Strange Rock (2018) IPTVRip [H.264] (сезон 1, серия 1-8 из 10)

Производство: США, Nutopia, Protozoa Pictures
Жанр: Документальный, познавательный, научно-популярный

Режиссер: Даррен Аронофски
Участники: Уилл Смит

Описание:
Необычайная история Земли и почему она необыкновенно наполнена жизнью в значительной части неизвестной, но суровой космической арены; астронавты рассказывают историю Земли с помощью уникальной перспективы.

http://www.imdb.com/title/tt7651892/?ref_=plg_rt_1

Релиз от: Dmitry-tv
Продолжительность: серии x ~00:46:55
Качество видео: IPTVRip
Перевод: Одноголосый закадровый, профессиональный (Велес)
Субтитры: отсутствуют

Видео: AVC/H.264, 720x400@711x400, ~1391 Kbps
Аудио#1: MP3, 2 ch, 192 Kbps | Русский (текст читает Юрий Романов)
Аудио#2: MP3, 2 ch, 192 Kbps | Английский
Код: Выделить всё
Общее
Уникальный идентификатор                 : 20931479518095655767824897605120839024 (0xFBF419E158B845E2E3AD4DF68484D70)
Полное имя                               : F:\КИНО\OneStrangeRock .S01. -[NatGeo]-\OneStrangeRock .S01E01 -[NatGeo]-.mkv
Формат                                   : Matroska
Версия формата                           : Version 4 / Version 2
Размер файла                             : 594 Мбайт
Продолжительность                        : 46 м. 55 с.
Общий поток                              : 1770 Кбит/сек
Дата кодирования                         : UTC 2018-03-25 19:27:30
Программа кодирования                    : mkvmerge v21.0.0 ('Tardigrades Will Inherit The Earth') 64-bit
Библиотека кодирования                   : libebml v1.3.5 + libmatroska v1.4.8

Видео
Идентификатор                            : 1
Формат                                   : AVC
Формат/Информация                        : Advanced Video Codec
Профиль формата                          : [url=http://nnmclub.to/mailto:High@L3.2]High@L3.2[/url]
Настройки формата                        : CABAC / 2 Ref Frames
Параметр CABAC формата                   : Да
Параметр RefFrames формата               : 2 кадра
Идентификатор кодека                     : V_MPEG4/ISO/AVC
Продолжительность                        : 46 м. 55 с.
Битрейт                                  : 1391 Кбит/сек
Ширина                                   : 720 пикселей
Высота                                   : 400 пикселей
Соотношение сторон                       : 16:9
Режим частоты кадров                     : Постоянный
Частота кадров                           : 25,000 кадров/сек
Цветовое пространство                    : YUV
Субдискретизация насыщенности            : 4:2:0
Битовая глубина                          : 8 бит
Тип развёртки                            : Прогрессивная
Бит/(Пиксели*Кадры)                      : 0.193
Размер потока                            : 464 Мбайт (78%)
Библиотека кодирования                   : x264 core 155 r2901
Настройки программы                      : cabac=1 / ref=1 / deblock=1:0:0 / analyse=0x3:0x133 / me=hex / subme=5 / psy=1 / psy_rd=1.00:0.00 / mixed_ref=0 / me_range=16 / chroma_me=1 / trellis=0 / 8x8dct=1 / cqm=0 / deadzone=21,11 / fast_pskip=1 / chroma_qp_offset=0 / threads=3 / lookahead_threads=1 / sliced_threads=0 / nr=0 / decimate=1 / interlaced=0 / bluray_compat=0 / constrained_intra=0 / bframes=3 / b_pyramid=0 / b_adapt=1 / b_bias=0 / direct=0 / weightb=1 / open_gop=0 / weightp=2 / keyint=250 / keyint_min=25 / scenecut=40 / intra_refresh=0 / rc_lookahead=40 / rc=abr / mbtree=1 / bitrate=1391 / ratetol=1.0 / qcomp=0.60 / qpmin=10 / qpmax=51 / qpstep=4 / vbv_maxrate=24000 / vbv_bufsize=24000 / nal_hrd=none / filler=0 / ip_ratio=1.40 / aq=1:1.00
Default                                  : Да
Forced                                   : Нет

Аудио #1
Идентификатор                            : 2
Формат                                   : MPEG Audio
Версия формата                           : Version 1
Профиль формата                          : Layer 3
Идентификатор кодека                     : A_MPEG/L3
Идентификатор кодека/Подсказка           : MP3
Продолжительность                        : 46 м. 55 с.
Вид битрейта                             : Постоянный
Битрейт                                  : 192 Кбит/сек
Каналы                                   : 2 канала
Частота                                  : 48,0 КГц
Частота кадров                           : 41,667 кадра/сек (1152 SPF)
Метод сжатия                             : С потерями
Размер потока                            : 64,4 Мбайт (11%)
Default                                  : Да
Forced                                   : Нет

Аудио #2
Идентификатор                            : 3
Формат                                   : MPEG Audio
Версия формата                           : Version 1
Профиль формата                          : Layer 3
Идентификатор кодека                     : A_MPEG/L3
Идентификатор кодека/Подсказка           : MP3
Продолжительность                        : 46 м. 55 с.
Вид битрейта                             : Постоянный
Битрейт                                  : 192 Кбит/сек
Каналы                                   : 2 канала
Частота                                  : 48,0 КГц
Частота кадров                           : 41,667 кадра/сек (1152 SPF)
Метод сжатия                             : С потерями
Размер потока                            : 64,4 Мбайт (11%)
Default                                  : Нет
Forced                                   : Нет
1-й сезон:
01. Зрелище, от которого дух захватывает
Те немногие, кому посчастливилось взглянуть на Землю из космоса, вспоминают, что тоненькая голубая полоска вокруг нашей планеты резко выделяла ее среди всех других планет.
02. Буря
Вы когда-нибудь задавались вопросом, как наша планета оказалась именно в том месте, где она сейчас находится? Она возникла в результате космической бури и сформировалась после целой серии столкновений космических объектов. Мы оказались в этом месте страшного и опасного космоса в результате серии случайных столкновений.
03. Щит
Земля защищает себя от солнца. История о Давиде и Голиафе - это история взаимоотношений Земли с ее самым грозным врагом, нашим таким на вид ласковым Солнцем.
04. Генезис
Наша планета отличается от множества других тем, что она живая. Несмотря на то, что строительные кирпичики, из которых образуется жизнь, можно найти повсюду во вселенной, вероятность встретить жизнь на какой-либо планете чрезвычайно мала.
05. Выживание
Необходимым условием для существования жизни на земле является смерть, которая запрограммирована во все на планете, начиная от клеток и до планеты в целом.
06. Побег
Астронавт Крис Хэдфилд покидал планету уже три раза, сейчас он готовится сделать это в очередной раз.
07. Терраформирование
С самого начала возникновения жизни на земле микробы, растения и животные принимают участие в формировании поверхности планеты и ее атмосферы самым странным образом: рыбы способствуют формированию островов, животные - гор, а растения - материков.
08. Инопланетяне
Найдем ли мы когда-нибудь жизнь, похожую на нашу, на другой планете? Жизнь на земле началась с простой одноклеточной бактерии и оставалась такой в течение почти двух миллиардов лет.
09. Пробуждение
Как произошло, что из всех форм жизни на земле только создания, наделенные умом, покидали нашу планету? В течение почти двух миллиардов лет ни одно создание на земле не обладало умом.
10. Дом
После трех полетов в космос, 665-ти дней, проведенных в состоянии невесомости, наиболее опытный астронавт НАСА Пегги Уитсон в последний раз пронзает атмосферу, чтобы вернуться домой на планету Земля.
При каждом добавлении создаётся новый торрент. Чтобы начать докачку новой серии, пользователям
необходимо сделать следующее:
- Остановить скачивание.
- Удалить старый торрент у себя из клиента (старые серии удалять не надо).
- Скачать новый торрент и запустить его у себя в клиенте вместо старого, при этом указать клиенту путь в старую папку куда и должно происходить скачивание новых серий.

Скриншоты:



Время раздачи: с 21:00 до 09:00 (до появления первых 3-5 скачавших)
 
Не забывайте говорить Спасибо. Не уходите с раздачи!   
Торрент: Зарегистрирован [13 май 2018, 23:21] Скачать торрент
Скачать торрент
[ Размер 13.04 КБ / Просмотров 7 ]
Статус:
Проверен
 
.torrent скачан: 0 раз
Хэш: 3147392b4532909f33825d6feb0eb24e2a2b9b65
Размер: 4.64 ГБ (4 982 521 903 байт)
Стать Автором раздачи
 
 
Раздал: 100 ГБ
Скачал: 0 байт
Ратио: Seed.
Сообщения: 103750
Зарегистрирован: 09 апр 2015, 22:31


  • Похожие торренты
    Ответы
    Просмотры
    Последнее сообщение

Вернуться в National Geographic

Ресурс не предоставляет электронные версии произведений, а занимается лишь коллекционированием и каталогизацией ссылок, присылаемых и публикуемых на форуме нашими читателями. Если вы являетесь правообладателем какого-либо представленного материала и не желаете чтобы ссылка на него находилась в нашем каталоге, свяжитесь с нами и мы незамедлительно удалим её. Файлы для обмена на трекере предоставлены пользователями сайта, и администрация не несёт ответственности за их содержание. Просьба не заливать файлы, защищенные авторскими правами, а также файлы нелегального содержания!