Вкус (2015) WEBRip [H.264/1080p-LQ]

 
 Статистика раздачи 
Размер: 308.44 МБ   |  Зарегистрирован: 13 май 2018, 23:11   |   .torrent скачан: 0 раз
Сидеров: 1  [ 0 байт/сек ]     Личеров: 0  [ 0 байт/сек ]  
  

Вкус (2015) WEBRip [H.264/1080p-LQ]

Сообщение explosiveone » 13 май 2018, 23:11

Вкус (2015) WEBRip [H.264/1080p-LQ]

Производство: Россия | ВГИК
Жанр: Комедия, короткометражный

Режиссер: Екатерина Краснер
Продюсер: Валерия Майзель
Актеры: Станислав Эвентов, Михаил Богдасаров, Елена Ксенофонтова, Александр Мичков, Софья Евстигнеева

Описание:
Миша наконец решился признаться в любви Лене. Но его прерывает отец девушки — он решил взять реванш в давней игре со своим другом. На кону огромный куш, который может достаться Лене... И все мгновенно меняется, на кону не только деньги, но и Лена...

http://www.imdb.com/title/tt4775116/?ref_=plg_rt_1
Возраст: 12+ (зрителям, достигшим 12 лет)

Продолжительность: 00:18:01
Качество видео: WEBRip
Субтитры: Отсутствуют

Видео: AVC/H.264, 1920х1080 (16:9), ~2247 kbps, 23.976 fps
Аудио: AC3, 2 ch, 44.1 kHz, 192 kbps CBR
Код: Выделить всё
General
Unique ID                   : 261127251977597964261105570575780972841 (0xC4734785F77E4A977FAB9AB1B49C8929)
Complete name               : D:\Вкус_2015_ВГИК.mkv
Format                      : Matroska
Format version              : Version 2
File size                   : 308 MiB
Duration                    : 18 min 1 s
Overall bit rate            : 2 393 kb/s
Writing application         : Lavf54.63.104
Writing library             : Lavf54.63.104

Video
ID                          : 1
Format                      : AVC
Format/Info                 : Advanced Video Codec
Format profile              : Main@L4
Format settings, CABAC      : Yes
Format settings, ReFrames   : 1 frame
Codec ID                    : V_MPEG4/ISO/AVC
Duration                    : 18 min 1 s
Bit rate                    : 2 247 kb/s
Width                       : 1 920 pixels
Height                      : 1 080 pixels
Display aspect ratio        : 16:9
Frame rate mode             : Constant
Frame rate                  : 23.976 (24000/1001) FPS
Color space                 : YUV
Chroma subsampling          : 4:2:0
Bit depth                   : 8 bits
Scan type                   : Progressive
Bits/(Pixel*Frame)          : 0.045
Stream size                 : 278 MiB (90%)
Writing library             : x264 core 129
Encoding settings           : cabac=1 / ref=1 / deblock=1:0:0 / analyse=0x1:0x131 / me=dia / subme=2 / psy=1 / psy_rd=1.00:0.00 / mixed_ref=0 / me_range=16 / chroma_me=1 / trellis=0 / 8x8dct=0 / cqm=0 / deadzone=21,11 / fast_pskip=1 / chroma_qp_offset=0 / threads=4 / lookahead_threads=1 / sliced_threads=0 / nr=0 / decimate=1 / interlaced=0 / bluray_compat=0 / constrained_intra=0 / bframes=0 / weightp=2 / keyint=250 / keyint_min=25 / scenecut=40 / intra_refresh=0 / rc_lookahead=40 / rc=abr / mbtree=1 / bitrate=2247 / ratetol=1.0 / qcomp=0.60 / qpmin=10 / qpmax=51 / qpstep=4 / ip_ratio=1.41 / aq=1:1.00
Default                     : Yes
Forced                      : No

Audio
ID                          : 2
Format                      : AC-3
Format/Info                 : Audio Coding 3
Format settings, Endianness : Big
Codec ID                    : A_AC3
Duration                    : 18 min 1 s
Bit rate mode               : Constant
Bit rate                    : 192 kb/s
Channel(s)                  : 2 channels
Channel positions           : Front: L R
Sampling rate               : 44.1 kHz
Frame rate                  : 28.711 FPS (1536 spf)
Bit depth                   : 16 bits
Compression mode            : Lossy
Stream size                 : 24.7 MiB (8%)
Service kind                : Complete Main
Default                     : Yes
Forced                      : No

Скриншоты:




Время раздачи: 24/7 (до появления первых 3-5 скачавших)
 
Не забывайте говорить Спасибо. Не уходите с раздачи!   
Торрент: Зарегистрирован [13 май 2018, 23:11] Скачать торрент
Скачать торрент
[ Размер 12.79 КБ / Просмотров 6 ]
Статус:
Проверен
 
.torrent скачан: 0 раз
Хэш: 98547af694d5274b01b8cd508bbaa34c23daa162
Размер: 308.44 МБ (323 420 092 байт)
Стать Автором раздачи
 
 
Раздал: 100 ГБ
Скачал: 0 байт
Ратио: Seed.
Сообщения: 104497
Зарегистрирован: 09 апр 2015, 22:31


  • Похожие торренты
    Ответы
    Просмотры
    Последнее сообщение

Вернуться в Отечественные фильмы 2011 - 2015 года

Ресурс не предоставляет электронные версии произведений, а занимается лишь коллекционированием и каталогизацией ссылок, присылаемых и публикуемых на форуме нашими читателями. Если вы являетесь правообладателем какого-либо представленного материала и не желаете чтобы ссылка на него находилась в нашем каталоге, свяжитесь с нами и мы незамедлительно удалим её. Файлы для обмена на трекере предоставлены пользователями сайта, и администрация не несёт ответственности за их содержание. Просьба не заливать файлы, защищенные авторскими правами, а также файлы нелегального содержания!