Ты, я и труп между нами (2015) WEBRip

 
 Статистика раздачи 
Размер: 254.06 МБ   |  Зарегистрирован: 13 май 2018, 17:03   |   .torrent скачан: 0 раз
Сидеров: 1  [ 0 байт/сек ]     Личеров: 0  [ 0 байт/сек ]  
  

Ты, я и труп между нами (2015) WEBRip

Сообщение explosiveone » 13 май 2018, 17:03

Ты, я и труп между нами (2015) WEBRip

Производство: Россия
Жанр: Короткометражный, драма, комедия, криминал

Режиссер: Иван Карасев
Актеры: Максим Андреев, Светлана Вишнякова, Мария Беспалова, Наталия Махрова, Сергей Валиев, Мурат Абулкатинов, Александр Евдокимов, Игорь Котлов, Кристина Языкова

Описание:
Сбежав с затянувшейся до утра вечеринки, молодая девушка пытается помочь своему давнему другу избавиться от кровавых последствий его ссоры с женой. Попутно они выясняют новые обстоятельства своих взаимоотношений.


Возраст: 16+ (зрителям, достигшим 16 лет)

Релиз от: Aлexandr
Продолжительность: 00:19:49
Качество видео: WEBRip
Субтитры: Отсутствуют

Видео: Xvid, 720x304, ~1590 Kbps
Аудио: AC3, 2 ch, 192 Kbps
Код: Выделить всё
Общее
Полное имя                               : D:\Ты, я и труп между нами (2015).by.Алехаndr.avi
Формат                                   : AVI
Формат/Информация                        : Audio Video Interleave
Размер файла                             : 254 Мбайт
Продолжительность                        : 19 м. 49 с.
Общий поток                              : 1792 Кбит/сек
Программа кодирования                    : Lavf57.41.100

Видео
Идентификатор                            : 0
Формат                                   : xvid
Идентификатор кодека                     : xvid
Продолжительность                        : 19 м. 49 с.
Битрейт                                  : 1589 Кбит/сек
Ширина                                   : 720 пикселей
Высота                                   : 304 пикселя
Соотношение сторон                       : 2,2:1
Частота кадров                           : 25,000 кадров/сек
Тип развёртки                            : Прогрессивная
Бит/(Пиксели*Кадры)                      : 0.290
Размер потока                            : 225 Мбайт (89%)

Аудио
Идентификатор                            : 1
Формат                                   : AC-3
Формат/Информация                        : Audio Coding 3
Идентификатор кодека                     : 2000
Продолжительность                        : 19 м. 49 с.
Вид битрейта                             : Постоянный
Битрейт                                  : 192 Кбит/сек
Каналы                                   : 2 канала
Расположение каналов                     : Front: L R
Частота                                  : 48,0 КГц
Частота кадров                           : 31,250 кадров/сек (1536 SPF)
Битовая глубина                          : 16 бит
Метод сжатия                             : С потерями
Размер потока                            : 27,2 Мбайт (11%)
Выравнивание                             : Соединение по промежуткам
Продолжительность промежутка             : 32  мс. (0,80 видеокадр)
ServiceKind/String                       : Complete Main

Скриншоты:




Время раздачи: 24/7 (круглосуточно) (до появления первых 3-5 скачавших)
 
Не забывайте говорить Спасибо. Не уходите с раздачи!   
Торрент: Зарегистрирован [13 май 2018, 17:03] Для скачивания .torrent
необходима регистрация
Или скачать с помощью
MediaGet
Статус:
Проверен
 
.torrent скачан: 0 раз
Хэш: 48971bc04f311be0972f69de92b8621d5d54c241
Размер: 254.06 МБ (266 400 108 байт)
Стать Автором раздачи
 
 
Раздал: 100 ГБ
Скачал: 0 байт
Ратио: Seed.
Сообщения: 101348
Зарегистрирован: 09 апр 2015, 22:31


  • Похожие торренты
    Ответы
    Просмотры
    Последнее сообщение

Вернуться в Отечественные фильмы 2011 - 2015 года

Ресурс не предоставляет электронные версии произведений, а занимается лишь коллекционированием и каталогизацией ссылок, присылаемых и публикуемых на форуме нашими читателями. Если вы являетесь правообладателем какого-либо представленного материала и не желаете чтобы ссылка на него находилась в нашем каталоге, свяжитесь с нами и мы незамедлительно удалим её. Файлы для обмена на трекере предоставлены пользователями сайта, и администрация не несёт ответственности за их содержание. Просьба не заливать файлы, защищенные авторскими правами, а также файлы нелегального содержания!