В тумане (2012) BDRip-AVC от ExKinoRay | Лицензия

 
 Статистика раздачи 
Размер: 2.53 ГБ   |  Зарегистрирован: 12 май 2018, 18:10   |   .torrent скачан: 0 раз
Сидеров: 1  [ 0 байт/сек ]     Личеров: 0  [ 0 байт/сек ]  
  

В тумане (2012) BDRip-AVC от ExKinoRay | Лицензия

Сообщение Lester » 12 май 2018, 18:10

Информация о фильме
Оригинальное название: В тумане
Год выпуска: 2012
Жанр: Драма, военный, история, ВОВ
Выпущено: Россия, Германия, Нидерланды, Латвия, Беларусь, Belarusfilm, GP Cinema Company, Lemming Film
Режиссер: Сергей Лозница
В ролях: Владимир Свирский, Владислав Абашин, Сергей Колесов, Никита Перемотов, Юлия Пересильд, Кирилл Петров, Дмитрий Колосов, Степан Богданов, Дмитрий Быковский, Влад Иванов, Игорь Хрипунов, Надежда Маркина, Борис Каморзин, Михаил Евланов, Сергей Русскин, Тимофей Трибунцев

О фильме: Действие исторической драмы происходит в 1942 году в оккупированной немцами Белоруссии. Путевого обходчика Сущеню ложно обвиняют в сотрудничестве с оккупантами. Два партизана приезжают на хутор к Сущене, чтобы совершить расправу. В надежде доказать свою невиновность Сущеня пытается сделать моральный выбор в аморальных обстоятельствах.



Формат: MKV
Качество: BDRip-AVC
Видео: MPEG-4 AVC, 1024х436 (2.35:1), 24.000 fps, 2383 Kbps, 0.222 bit/pixel
Аудио #01: 48 kHz, AC3, 5.1, 448 Kbps | RUS |
Продолжительность: 02:07:45
Язык: Русский [лицензия]

General
Unique ID : 171380763996663346888616289333200244309 (0x80EEBC09FB65DBD1AB6B4094FE634E55)
Complete name : D:V.tymane.2012.BDRip.AVC.ExKinoRay.mkv
Format : Matroska
Format version : Version 2
File size : 2.53 GiB
Duration : 2 h 7 min
Overall bit rate : 2 831 kb/s
Movie name : В тумане 2012 from ExKinoRay
Encoded date : UTC 2018-05-12 13:15:10
Writing application : mkvmerge v5.6.0 ('Kenya Kane') built on May 27 2012 16:44:04
Writing library : libebml v1.2.3 + libmatroska v1.3.0

Video
ID : 1
Format : AVC
Format/Info : Advanced Video Codec
Format profile : High@L4.1
Format settings, CABAC : Yes
Format settings, ReFrames : 11 frames
Codec ID : V_MPEG4/ISO/AVC
Duration : 2 h 7 min
Bit rate : 2 383 kb/s
Width : 1 024 pixels
Height : 436 pixels
Display aspect ratio : 2.35:1
Frame rate mode : Constant
Frame rate : 24.000 FPS
Color space : YUV
Chroma subsampling : 4:2:0
Bit depth : 8 bits
Scan type : Progressive
Bits/(Pixel*Frame) : 0.222
Stream size : 2.08 GiB (82%)
Title : Enigma
Writing library : x264 core 152 r2851 ba24899
Encoding settings : cabac=1 / ref=11 / deblock=1:-2:-2 / analyse=0x3:0x113 / me=umh / subme=11 / psy=1 / psy_rd=1.05:0.05 / mixed_ref=1 / me_range=32 / chroma_me=1 / trellis=2 / 8x8dct=1 / cqm=0 / deadzone=21,11 / fast_pskip=0 / chroma_qp_offset=-3 / threads=12 / lookahead_threads=3 / sliced_threads=0 / nr=0 / decimate=0 / interlaced=0 / bluray_compat=0 / constrained_intra=0 / bframes=14 / b_pyramid=2 / b_adapt=2 / b_bias=0 / direct=3 / weightb=1 / open_gop=0 / weightp=2 / keyint=240 / keyint_min=24 / scenecut=40 / intra_refresh=0 / rc_lookahead=40 / rc=2pass / mbtree=0 / bitrate=2383 / ratetol=1.0 / qcomp=0.60 / qpmin=0 / qpmax=51 / qpstep=4 / cplxblur=20.0 / qblur=0.5 / vbv_maxrate=50000 / vbv_bufsize=62500 / nal_hrd=none / filler=0 / ip_ratio=1.40 / pb_ratio=1.30 / aq=2:0.80
Language : English
Default : Yes
Forced : No
Color range : Limited
Color primaries : BT.709
Transfer characteristics : BT.709
Matrix coefficients : BT.709

Audio
ID : 2
Format : AC-3
Format/Info : Audio Coding 3
Mode extension : CM (complete main)
Format settings, Endianness : Big
Codec ID : A_AC3
Duration : 2 h 7 min
Bit rate mode : Constant
Bit rate : 448 kb/s
Channel(s) : 6 channels
Channel positions : Front: L C R, Side: L R, LFE
Sampling rate : 48.0 kHz
Frame rate : 31.250 FPS (1536 spf)
Compression mode : Lossy
Stream size : 409 MiB (16%)
Language : Russian
Default : Yes
Forced : No

Menu
00:00:00.000 : :Chapter 01
00:05:20.416 : :Chapter 02
00:12:42.166 : :Chapter 03
00:18:33.583 : :Chapter 04
00:23:51.250 : :Chapter 05
00:30:00.708 : :Chapter 06
00:36:22.708 : :Chapter 07
00:42:43.916 : :Chapter 08
00:48:50.708 : :Chapter 09
00:53:53.458 : :Chapter 10
01:01:39.500 : :Chapter 11
01:06:59.875 : :Chapter 12
01:13:18.791 : :Chapter 13
01:18:43.333 : :Chapter 14
01:26:28.791 : :Chapter 15
01:31:57.583 : :Chapter 16
01:37:33.208 : :Chapter 17
01:42:12.250 : :Chapter 18
01:48:56.000 : :Chapter 19
01:55:30.291 : :Chapter 20
02:00:45.166 : :Chapter 21
02:07:45.666 : :Chapter 22





Релиз от:

Автор релиза:
 
Не забывайте говорить Спасибо. Не уходите с раздачи!   
Торрент: Зарегистрирован [12 май 2018, 18:10] Для скачивания .torrent
необходима регистрация
Или скачать с помощью
MediaGet
Статус:
Проверен
 
.torrent скачан: 0 раз
Хэш: 08e7d94988687437ff8286ea39ffb8ab496d3f1f
Размер: 2.53 ГБ (2 712 593 031 байт)
Стать Автором раздачи
 
 
Раздал: 100 ГБ
Скачал: 0 байт
Ратио: Seed.
Сообщения: 119643
Зарегистрирован: 09 апр 2015, 23:00


  • Похожие торренты
    Ответы
    Просмотры
    Последнее сообщение

Вернуться в Отечественные фильмы 2011 - 2015 года

Ресурс не предоставляет электронные версии произведений, а занимается лишь коллекционированием и каталогизацией ссылок, присылаемых и публикуемых на форуме нашими читателями. Если вы являетесь правообладателем какого-либо представленного материала и не желаете чтобы ссылка на него находилась в нашем каталоге, свяжитесь с нами и мы незамедлительно удалим её. Файлы для обмена на трекере предоставлены пользователями сайта, и администрация не несёт ответственности за их содержание. Просьба не заливать файлы, защищенные авторскими правами, а также файлы нелегального содержания!
cron