Bay City Rollers - Bye Bye Baby (1993) Compilation [FLAC|Lossless|image + .cue] <Rock, Pop, Bubblegum >

 
 Статистика раздачи 
Размер: 252.38 МБ   |  Зарегистрирован: 12 май 2018, 16:28   |   .torrent скачан: 0 раз
Сидеров: 1  [ 0 байт/сек ]     Личеров: 0  [ 0 байт/сек ]  
  

Bay City Rollers - Bye Bye Baby (1993) Compilation [FLAC|Lossless|image + .cue] <Rock, Pop, Bubblegum >

Сообщение explosiveone » 12 май 2018, 16:28

Bay City Rollers - Bye Bye Baby (1993) Compilation

Жанр: Rock, Pop
Издание: Life Time ‎– LT 5056
Источник: oldvinil как бСССР
Продолжительность: 00:43:16

Кодек: FLAC
Битрейт: Lossless
Тип рипа: image + .cue

Треклист:
01. Remember (Sha La La)
02. Give A Little Love
03. Shang-A-Lang
04. Yesterday’s Hero
05. I Only Wanna Be With You
06. Summerlove Sensation
07. Bye Bye Baby
08. It’s A Game
09. Saturday Night
10. Rock ‘n’ Roll Love Letter
11. You Made Me Believe In Magic
12. Megamix: Remember (Sha La La), Shang-A-Lang, I Only Wanna Be With You, Bye Bye Baby, Give A Little Love










Код: Выделить всё
Exact Audio Copy V1.3 from 2. September 2016

EAC extraction logfile from 12. May 2018, 13:05

Bay City Rollers / Bye Bye Baby

Used drive  : ASUS    DRW-24B3ST   Adapter: 1  ID: 1

Read mode               : Secure
Utilize accurate stream : Yes
Defeat audio cache      : Yes
Make use of C2 pointers : No

Read offset correction                      : 6
Overread into Lead-In and Lead-Out          : No
Fill up missing offset samples with silence : Yes
Delete leading and trailing silent blocks   : No
Null samples used in CRC calculations       : Yes
Used interface                              : Native Win32 interface for Win NT & 2000

Used output format              : User Defined Encoder
Selected bitrate                : 768 kBit/s
Quality                         : High
Add ID3 tag                     : No
Command line compressor         : C:\Program Files (x86)\Exact Audio Copy\FLAC\FLAC.EXE
Additional command line options :  -8 -V -T "TITLE=%title%" -T "ARTIST=%artist%" -T "ALBUMARTIST=%albumartist%" -T "ALBUM=%albumtitle%" -T "DATE=%year%" -T "TRACKNUMBER=%tracknr%" -T "TRACKTOTAL=%numtracks%" -T "GENRE=%genre%" -T "COMMENT=%comment%" -T "PERFORMER=%albuminterpret%" -T "COMPOSER=%composer%" %source% -o %dest%

TOC of the extracted CD

     Track |   Start  |  Length  | Start sector | End sector
    ---------------------------------------------------------
        1  |  0:00.00 |  3:13.10 |         0    |    14484
        2  |  3:13.10 |  3:38.19 |     14485    |    30853
        3  |  6:51.29 |  3:30.61 |     30854    |    46664
        4  | 10:22.15 |  4:09.05 |     46665    |    65344
        5  | 14:31.20 |  3:40.18 |     65345    |    81862
        6  | 18:11.38 |  3:38.51 |     81863    |    98263
        7  | 21:50.14 |  3:09.05 |     98264    |   112443
        8  | 24:59.19 |  3:16.38 |    112444    |   127181
        9  | 28:15.57 |  3:08.57 |    127182    |   141338
       10  | 31:24.39 |  3:25.20 |    141339    |   156733
       11  | 34:49.59 |  3:18.20 |    156734    |   171603
       12  | 38:08.04 |  5:08.42 |    171604    |   194745

Range status and errors

Selected range

     Filename F:\бСССР\0 NEW\Bay City Rollers - Bye Bye Baby.wav

     Peak level 94.4 %
     Extraction speed 7.5 X
     Range quality 99.9 %
     Test CRC 8771B4DD
     Copy CRC 8771B4DD
     Copy OK

No errors occurred

AccurateRip summary

Track  1  not present in database
Track  2  not present in database
Track  3  not present in database
Track  4  not present in database
Track  5  not present in database
Track  6  not present in database
Track  7  not present in database
Track  8  not present in database
Track  9  not present in database
Track 10  not present in database
Track 11  not present in database
Track 12  not present in database

None of the tracks are present in the AccurateRip database

End of status report

---- CUETools DB Plugin V2.1.6

[CTDB TOCID: UWAXYAp_ZKsdF6U05GvubDhoGDs-] found
Submit result: UWAXYAp_ZKsdF6U05GvubDhoGDs- has been confirmed
Track | CTDB Status
  1   | (6/6) Accurately ripped
  2   | (6/6) Accurately ripped
  3   | (6/6) Accurately ripped
  4   | (6/6) Accurately ripped
  5   | (6/6) Accurately ripped
  6   | (6/6) Accurately ripped
  7   | (6/6) Accurately ripped
  8   | (6/6) Accurately ripped
  9   | (6/6) Accurately ripped
 10   | (6/6) Accurately ripped
 11   | (6/6) Accurately ripped
 12   | (6/6) Accurately ripped

==== Log checksum 06EA7C86F4CB76E036CA4E770AA7C28AD5221A86AA67886F553DE47CFE867FA2 ====
Код: Выделить всё
REM GENRE Folk
REM DISCID 990A240C
REM COMMENT "ExactAudioCopy v1.3"
PERFORMER "Bay City Rollers"
TITLE "Bye Bye Baby"
REM COMPOSER ""
FILE "Bay City Rollers - Bye Bye Baby.flac" WAVE
  TRACK 01 AUDIO
    TITLE "remember (sha la la la)"
    PERFORMER "Bay City Rollers"
    REM COMPOSER ""
    INDEX 01 00:00:00
  TRACK 02 AUDIO
    TITLE "give a little love"
    PERFORMER "Bay City Rollers"
    REM COMPOSER ""
    INDEX 01 03:13:10
  TRACK 03 AUDIO
    TITLE "shang-a-lang"
    PERFORMER "Bay City Rollers"
    REM COMPOSER ""
    INDEX 01 06:51:29
  TRACK 04 AUDIO
    TITLE "yesterday's hero"
    PERFORMER "Bay City Rollers"
    REM COMPOSER ""
    INDEX 01 10:22:15
  TRACK 05 AUDIO
    TITLE "i only wanna be with you"
    PERFORMER "Bay City Rollers"
    REM COMPOSER ""
    INDEX 01 14:31:20
  TRACK 06 AUDIO
    TITLE "summerlove sensation"
    PERFORMER "Bay City Rollers"
    REM COMPOSER ""
    INDEX 01 18:11:38
  TRACK 07 AUDIO
    TITLE "bye bye baby"
    PERFORMER "Bay City Rollers"
    REM COMPOSER ""
    INDEX 01 21:50:14
  TRACK 08 AUDIO
    TITLE "It's a Game"
    PERFORMER "Bay City Rollers"
    REM COMPOSER ""
    INDEX 01 24:59:19
  TRACK 09 AUDIO
    TITLE "Saturday Night"
    PERFORMER "Bay City Rollers"
    REM COMPOSER ""
    INDEX 01 28:15:57
  TRACK 10 AUDIO
    TITLE "Rock N' Roll Love Letter"
    PERFORMER "Bay City Rollers"
    REM COMPOSER ""
    INDEX 01 31:24:39
  TRACK 11 AUDIO
    TITLE "You Made Me Believe in Magic"
    PERFORMER "Bay City Rollers"
    REM COMPOSER ""
    INDEX 01 34:49:59
  TRACK 12 AUDIO
    TITLE "Megamix"
    PERFORMER "Bay City Rollers"
    REM COMPOSER ""
    INDEX 01 38:08:04
Код: Выделить всё
-----------------------

DON'T MODIFY THIS FILE

-----------------------

PERFORMER: auCDtect Task Manager, ver. 1.6.0 RC1 build 1.6.0.1
Copyright (c) 2008-2010 y-soft. All rights reserved
[url=http://y-soft.org]http://y-soft.org[/url]

ANALYZER: auCDtect: CD records authenticity detector, version 0.8.2
Copyright (c) 2004 Oleg Berngardt. All rights reserved.
Copyright (c) 2004 Alexander Djourik. All rights reserved.

FILE: Bay City Rollers - Bye Bye Baby.flac
  Size: 264634425 Hash: F16840BA939F9210189CF9FA392E2649 Accuracy: -m0
  Conclusion: MPEG 95%
  Signature: 3D4D07229557E8389BB7A8DCABBC79B6C83729D2



Время раздачи:
c 09:00 до 20:00 (до появления первых 3-5 скачавших)
 
Не забывайте говорить Спасибо. Не уходите с раздачи!   
Торрент: Зарегистрирован [12 май 2018, 16:28] Скачать торрент
Скачать торрент
[ Размер 20.77 КБ / Просмотров 5 ]
Статус:
Проверен
 
.torrent скачан: 0 раз
Хэш: 1d7d6c90affc14b355ccbc2ba1604ecdec52f1c7
Размер: 252.38 МБ (264 644 645 байт)
Стать Автором раздачи
 
 
Раздал: 100 ГБ
Скачал: 0 байт
Ратио: Seed.
Сообщения: 112047
Зарегистрирован: 09 апр 2015, 22:31


  • Похожие торренты
    Ответы
    Просмотры
    Последнее сообщение

Вернуться в Rock (транзит Lossless)

Ресурс не предоставляет электронные версии произведений, а занимается лишь коллекционированием и каталогизацией ссылок, присылаемых и публикуемых на форуме нашими читателями. Если вы являетесь правообладателем какого-либо представленного материала и не желаете чтобы ссылка на него находилась в нашем каталоге, свяжитесь с нами и мы незамедлительно удалим её. Файлы для обмена на трекере предоставлены пользователями сайта, и администрация не несёт ответственности за их содержание. Просьба не заливать файлы, защищенные авторскими правами, а также файлы нелегального содержания!